  0
SECTION
  2
HEADER
  9
$ACADVER
  1
AC1021
  9
$DWGCODEPAGE
  3
ANSI_1252
  9
$EXTMAX
 10
700.0
 20
495.0
 30
0.0
  9
$EXTMIN
 10
0.0
 20
-0.0
 30
0.0
  9
$LIMMIN
 10
0.0
 20
-0.0
  9
$LIMMAX
 10
700.0
 20
495.0
  9
$VIEWCTR
 10
350.0
 20
247.5
  9
$VIEWSIZE
 40
495.0
  9
$CLAYER
  8
0
  9
$LTSCALE
 40
38.5
  9
$CELTYPE
  6
BYLAYER
  9
$DIMSCALE
 40
1.0
  9
$DIMASZ
 40
5.8333333333
  9
$DIMEXO
 40
4.375
  9
$DIMDLI
 40
26.6
  9
$DIMEXE
 40
12.6
  9
$DIMCEN
 40
6.3
  9
$DIMLFAC
 40
1.0
  9
$DIMBLK
  1
_FILLED
  9
$DIMTXT
 40
4.1666666667
  9
$DIMTOL
 70
1
  9
$DIMLIM
 70
0
  9
$DIMTFAC
 40
1.0
  9
$DIMTP
 40
0.05
  9
$DIMTM
 40
0.05
  9
$PDMODE
 70
3
  9
$PDSIZE
 40
0.3125
  9
$HANDSEED
  5
491
  9
$TILEMODE
 70
1
  9
$MEASUREMENT
 70
1
  9
$INSUNITS
 70
4
  0
ENDSEC
  0
SECTION
  2
CLASSES
  0
CLASS
  1
ACDBDICTIONARYWDFLT
  2
AcDbDictionaryWithDefault
  3
AutoCAD 2000
 90
0
 91
1
280
0
281
0
  0
CLASS
  1
ACDBPLACEHOLDER
  2
AcDbPlaceHolder
  3
AutoCAD 2000
 90
0
 91
1
280
0
281
0
  0
CLASS
  1
LAYOUT
  2
AcDbLayout
  3
AutoCAD 2000
 90
0
 91
0
280
0
281
0
  0
ENDSEC
  0
SECTION
  2
TABLES
  0
TABLE
  2
VPORT
  5
8
100
AcDbSymbolTable
 70
2
  0
VPORT
  5
1F4
100
AcDbSymbolTableRecord
100
AcDbViewportTableRecord
  2
*ACTIVE
 70
0
 10
0.0
 20
0.0
 11
1.0
 21
1.0
 12
350.0
 22
247.5
 13
0.0
 23
0.0
 14
1.0
 24
1.0
 15
0.0
 25
0.0
 16
0.0
 26
0.0
 36
1.0
 17
0.0
 27
0.0
 37
0.0
 40
495.0
 41
1.4141414141
 42
50.0
 43
0.0
 44
0.0
 50
0.0
 51
0.0
 71
0
 72
100
 73
1
 74
1
 75
0
 76
0
 77
0
 78
0
  0
ENDTAB
  0
TABLE
  2
LTYPE
  5
5
100
AcDbSymbolTable
 70
6
  0
LTYPE
  5
14
100
AcDbSymbolTableRecord
100
AcDbLinetypeTableRecord
  2
BYBLOCK
 70
0
  3

 72
65
 73
0
 40
0.0
  0
LTYPE
  5
15
100
AcDbSymbolTableRecord
100
AcDbLinetypeTableRecord
  2
BYLAYER
 70
0
  3

 72
65
 73
0
 40
0.0
  0
LTYPE
  5
16
100
AcDbSymbolTableRecord
100
AcDbLinetypeTableRecord
  2
CONTINUOUS
 70
64
  3
Solid line
 72
65
 73
0
 40
0.0
  0
LTYPE
  5
1F5
100
AcDbSymbolTableRecord
100
AcDbLinetypeTableRecord
  2
CENTER
 70
64
  3
____ _ ____ _ ____ _ ____ _ ____ _ ____ _ ____
 72
65
 73
4
 40
0.6
 49
0.375
 74
0
 49
-0.075
 74
0
 49
0.075
 74
0
 49
-0.075
 74
0
  0
LTYPE
  5
1F6
100
AcDbSymbolTableRecord
100
AcDbLinetypeTableRecord
  2
HIDDEN
 70
64
  3
- - - - - - - - - - - - - - - - - - - -
 72
65
 73
2
 40
0.2
 49
0.1
 74
0
 49
-0.1
 74
0
  0
LTYPE
  5
1F7
100
AcDbSymbolTableRecord
100
AcDbLinetypeTableRecord
  2
PHANTOM
 70
64
  3
_____ _ _ _____ _ _ _____ _ _ _____
 72
65
 73
6
 40
0.8
 49
0.45
 74
0
 49
-0.05
 74
0
 49
0.1
 74
0
 49
-0.05
 74
0
 49
0.1
 74
0
 49
-0.05
 74
0
  0
LTYPE
  5
1F8
100
AcDbSymbolTableRecord
100
AcDbLinetypeTableRecord
  2
DOT
 70
64
  3
. . . . . . . . . . . . . . . . . . . .
 72
65
 73
2
 40
0.2
 49
0.1
 74
0
 49
-0.1
 74
0
  0
LTYPE
  5
1F9
100
AcDbSymbolTableRecord
100
AcDbLinetypeTableRecord
  2
DASHED
 70
64
  3
- - - - - - - - - - - - - - - - - - - -
 72
65
 73
2
 40
0.2
 49
0.1
 74
0
 49
-0.1
 74
0
  0
ENDTAB
  0
TABLE
  2
LAYER
  5
2
100
AcDbSymbolTable
 70
36
  0
LAYER
  5
10
100
AcDbSymbolTableRecord
100
AcDbLayerTableRecord
  2
0
 70
0
 62
7
  6
CONTINUOUS
370
-3
390
F
  0
LAYER
  5
1FA
100
AcDbSymbolTableRecord
100
AcDbLayerTableRecord
  2
DEFAULT_1
 70
0
 62
7
  6
CENTER
370
-3
390
F
  0
LAYER
  5
1FB
100
AcDbSymbolTableRecord
100
AcDbLayerTableRecord
  2
DEFAULT_2
 70
0
 62
8
  6
HIDDEN
370
-3
390
F
  0
LAYER
  5
1FC
100
AcDbSymbolTableRecord
100
AcDbLayerTableRecord
  2
DEFAULT_3
 70
0
 62
7
  6
PHANTOM
370
-3
390
F
  0
LAYER
  5
1FD
100
AcDbSymbolTableRecord
100
AcDbLayerTableRecord
  2
ANSICHT_3D
 70
0
 62
7
  6
CONTINUOUS
370
-3
390
F
  0
LAYER
  5
1FE
100
AcDbSymbolTableRecord
100
AcDbLayerTableRecord
  2
ANSICHT_LINKS
 70
0
 62
7
  6
CONTINUOUS
370
-3
390
F
  0
LAYER
  5
1FF
100
AcDbSymbolTableRecord
100
AcDbLayerTableRecord
  2
ANSICHT_RECHTS
 70
0
 62
7
  6
CONTINUOUS
370
-3
390
F
  0
LAYER
  5
200
100
AcDbSymbolTableRecord
100
AcDbLayerTableRecord
  2
AUSBLENDEN
 70
0
 62
7
  6
CONTINUOUS
370
-3
390
F
  0
LAYER
  5
201
100
AcDbSymbolTableRecord
100
AcDbLayerTableRecord
  2
BEZUGSACHSEN
 70
0
 62
7
  6
CONTINUOUS
370
-3
390
F
  0
LAYER
  5
202
100
AcDbSymbolTableRecord
100
AcDbLayerTableRecord
  2
BEZUGSEBENEN
 70
0
 62
7
  6
CONTINUOUS
370
-3
390
F
  0
LAYER
  5
203
100
AcDbSymbolTableRecord
100
AcDbLayerTableRecord
  2
BG_STARTBEZUEGE
 70
0
 62
7
  6
CONTINUOUS
370
-3
390
F
  0
LAYER
  5
204
100
AcDbSymbolTableRecord
100
AcDbLayerTableRecord
  2
BOHRUNGEN
 70
0
 62
7
  6
CONTINUOUS
370
-3
390
F
  0
LAYER
  5
205
100
AcDbSymbolTableRecord
100
AcDbLayerTableRecord
  2
FASEN
 70
0
 62
7
  6
CONTINUOUS
370
-3
390
F
  0
LAYER
  5
206
100
AcDbSymbolTableRecord
100
AcDbLayerTableRecord
  2
FLAECHEN
 70
0
 62
7
  6
CONTINUOUS
370
-3
390
F
  0
LAYER
  5
207
100
AcDbSymbolTableRecord
100
AcDbLayerTableRecord
  2
GEWINDE
 70
0
 62
7
  6
CONTINUOUS
370
-3
390
F
  0
LAYER
  5
208
100
AcDbSymbolTableRecord
100
AcDbLayerTableRecord
  2
HILFEN
 70
0
 62
7
  6
CONTINUOUS
370
-3
390
F
  0
LAYER
  5
209
100
AcDbSymbolTableRecord
100
AcDbLayerTableRecord
  2
KOSM_3D
 70
0
 62
7
  6
CONTINUOUS
370
-3
390
F
  0
LAYER
  5
20A
100
AcDbSymbolTableRecord
100
AcDbLayerTableRecord
  2
KOSM_NEW_VIEW10
 70
0
 62
7
  6
CONTINUOUS
370
-3
390
F
  0
LAYER
  5
20B
100
AcDbSymbolTableRecord
100
AcDbLayerTableRecord
  2
KURVEN
 70
0
 62
7
  6
CONTINUOUS
370
-3
390
F
  0
LAYER
  5
20C
100
AcDbSymbolTableRecord
100
AcDbLayerTableRecord
  2
LAY0001
 70
0
 62
7
  6
CONTINUOUS
370
-3
390
F
  0
LAYER
  5
20D
100
AcDbSymbolTableRecord
100
AcDbLayerTableRecord
  2
MOTOR
 70
0
 62
7
  6
CONTINUOUS
370
-3
390
F
  0
LAYER
  5
20E
100
AcDbSymbolTableRecord
100
AcDbLayerTableRecord
  2
PLAZIERUNG
 70
0
 62
7
  6
CONTINUOUS
370
-3
390
F
  0
LAYER
  5
20F
100
AcDbSymbolTableRecord
100
AcDbLayerTableRecord
  2
RUNDUNGEN
 70
0
 62
7
  6
CONTINUOUS
370
-3
390
F
  0
LAYER
  5
210
100
AcDbSymbolTableRecord
100
AcDbLayerTableRecord
  2
STOERK
 70
0
 62
7
  6
CONTINUOUS
370
-3
390
F
  0
LAYER
  5
211
100
AcDbSymbolTableRecord
100
AcDbLayerTableRecord
  2
TEIL_STARTBEZUEGE
 70
0
 62
7
  6
CONTINUOUS
370
-3
390
F
  0
LAYER
  5
212
100
AcDbSymbolTableRecord
100
AcDbLayerTableRecord
  2
XSEC_DATUMS
 70
0
 62
7
  6
CONTINUOUS
370
-3
390
F
  0
LAYER
  5
213
100
AcDbSymbolTableRecord
100
AcDbLayerTableRecord
  2
ZEICHNUNGSBEMASSUNGEN
 70
0
 62
7
  6
CONTINUOUS
370
-3
390
F
  0
LAYER
  5
214
100
AcDbSymbolTableRecord
100
AcDbLayerTableRecord
  2
_2D_DELETED_OBJS
 70
0
 62
7
  6
CONTINUOUS
370
-3
390
F
  0
LAYER
  5
215
100
AcDbSymbolTableRecord
100
AcDbLayerTableRecord
  2
_BLACK_HOLE
 70
0
 62
7
  6
CONTINUOUS
370
-3
390
F
  0
ENDTAB
  0
TABLE
  2
STYLE
  5
3
100
AcDbSymbolTable
 70
1
  0
STYLE
  5
11
100
AcDbSymbolTableRecord
100
AcDbTextStyleTableRecord
  2
STANDARD
 70
0
 40
0.0
 41
0.7
 50
0.0
 71
0
 42
0.2
  3
txt
  4

  0
STYLE
  5
216
100
AcDbSymbolTableRecord
100
AcDbTextStyleTableRecord
  2
TEXTSTYLE_1
 70
0
 40
0.0
 41
0.8
 50
0.0
 71
0
 42
0.2
  3
gdt
  4

  0
STYLE
  5
217
100
AcDbSymbolTableRecord
100
AcDbTextStyleTableRecord
  2
TEXTSTYLE_2
 70
0
 40
0.0
 41
0.7
 50
0.0
 71
0
 42
0.2
  3
gdt
  4

  0
STYLE
  5
218
100
AcDbSymbolTableRecord
100
AcDbTextStyleTableRecord
  2
TEXTSTYLE_3
 70
0
 40
0.0
 41
0.6
 50
0.0
 71
0
 42
0.2
  3
txt
  4

  0
ENDTAB
  0
TABLE
  2
VIEW
  5
6
100
AcDbSymbolTable
 70
0
  0
ENDTAB
  0
TABLE
  2
UCS
  5
7
100
AcDbSymbolTable
 70
0
  0
ENDTAB
  0
TABLE
  2
APPID
  5
9
100
AcDbSymbolTable
 70
1
  0
APPID
  5
219
100
AcDbSymbolTableRecord
100
AcDbRegAppTableRecord
  2
ACAD
 70
0
  0
ENDTAB
  0
TABLE
  2
BLOCK_RECORD
  5
1
100
AcDbSymbolTable
 70
0
  0
BLOCK_RECORD
  5
21A
100
AcDbSymbolTableRecord
100
AcDbBlockTableRecord
  2
*Model_Space
  0
BLOCK_RECORD
  5
21B
100
AcDbSymbolTableRecord
100
AcDbBlockTableRecord
  2
*Paper_Space
  0
BLOCK_RECORD
  5
21C
100
AcDbSymbolTableRecord
100
AcDbBlockTableRecord
  2
_FILLED
  0
BLOCK_RECORD
  5
21D
100
AcDbSymbolTableRecord
100
AcDbBlockTableRecord
  2
*D0
  0
BLOCK_RECORD
  5
21E
100
AcDbSymbolTableRecord
100
AcDbBlockTableRecord
  2
*D1
  0
BLOCK_RECORD
  5
21F
100
AcDbSymbolTableRecord
100
AcDbBlockTableRecord
  2
*D2
  0
BLOCK_RECORD
  5
220
100
AcDbSymbolTableRecord
100
AcDbBlockTableRecord
  2
*D3
  0
BLOCK_RECORD
  5
221
100
AcDbSymbolTableRecord
100
AcDbBlockTableRecord
  2
*D4
  0
BLOCK_RECORD
  5
222
100
AcDbSymbolTableRecord
100
AcDbBlockTableRecord
  2
*D5
  0
BLOCK_RECORD
  5
223
100
AcDbSymbolTableRecord
100
AcDbBlockTableRecord
  2
*D6
  0
BLOCK_RECORD
  5
224
100
AcDbSymbolTableRecord
100
AcDbBlockTableRecord
  2
*D7
  0
BLOCK_RECORD
  5
225
100
AcDbSymbolTableRecord
100
AcDbBlockTableRecord
  2
*D8
  0
BLOCK_RECORD
  5
226
100
AcDbSymbolTableRecord
100
AcDbBlockTableRecord
  2
*D9
  0
BLOCK_RECORD
  5
227
100
AcDbSymbolTableRecord
100
AcDbBlockTableRecord
  2
*D10
  0
BLOCK_RECORD
  5
228
100
AcDbSymbolTableRecord
100
AcDbBlockTableRecord
  2
*D11
  0
BLOCK_RECORD
  5
229
100
AcDbSymbolTableRecord
100
AcDbBlockTableRecord
  2
*D12
  0
BLOCK_RECORD
  5
22A
100
AcDbSymbolTableRecord
100
AcDbBlockTableRecord
  2
*D13
  0
BLOCK_RECORD
  5
22B
100
AcDbSymbolTableRecord
100
AcDbBlockTableRecord
  2
*D14
  0
BLOCK_RECORD
  5
22C
100
AcDbSymbolTableRecord
100
AcDbBlockTableRecord
  2
*D15
  0
BLOCK_RECORD
  5
22D
100
AcDbSymbolTableRecord
100
AcDbBlockTableRecord
  2
*D16
  0
BLOCK_RECORD
  5
22E
100
AcDbSymbolTableRecord
100
AcDbBlockTableRecord
  2
*D17
  0
BLOCK_RECORD
  5
22F
100
AcDbSymbolTableRecord
100
AcDbBlockTableRecord
  2
*D18
  0
BLOCK_RECORD
  5
230
100
AcDbSymbolTableRecord
100
AcDbBlockTableRecord
  2
*D19
  0
BLOCK_RECORD
  5
231
100
AcDbSymbolTableRecord
100
AcDbBlockTableRecord
  2
*D20
  0
BLOCK_RECORD
  5
232
100
AcDbSymbolTableRecord
100
AcDbBlockTableRecord
  2
*D21
  0
BLOCK_RECORD
  5
233
100
AcDbSymbolTableRecord
100
AcDbBlockTableRecord
  2
*D22
  0
BLOCK_RECORD
  5
234
100
AcDbSymbolTableRecord
100
AcDbBlockTableRecord
  2
SYMBOL_70_BL3
  0
BLOCK_RECORD
  5
235
100
AcDbSymbolTableRecord
100
AcDbBlockTableRecord
  2
SYMBOL_47_BL2
  0
BLOCK_RECORD
  5
236
100
AcDbSymbolTableRecord
100
AcDbBlockTableRecord
  2
SYMBOL_38_BL1
  0
BLOCK_RECORD
  5
237
100
AcDbSymbolTableRecord
100
AcDbBlockTableRecord
  2
SYMBOL_64_BL0
  0
ENDTAB
  0
TABLE
  2
DIMSTYLE
  5
A
100
AcDbSymbolTable
 70
1
100
AcDbDimStyleTable
 71
0
  0
DIMSTYLE
105
238
100
AcDbSymbolTableRecord
100
AcDbDimStyleTableRecord
  2
STANDARD
 70
0
  3

  4

 40
1.0
 41
5.8333333333
 42
0.0625
 43
0.38
 44
0.18
 45
0.0
 46
0.0
 47
0.05
 48
0.05
140
4.1666666667
141
0.09
142
0.0
143
25.4
144
1.0
145
0.0
146
1.0
147
0.09
 71
1.0
 72
0.0
 73
0
 74
0
 75
0
 76
0
 77
1
 78
8
170
0
171
2
172
0
173
0
174
0
175
0
176
0
177
0
178
5
270
2
271
2
272
2
273
2
274
2
275
0
280
0
281
0
282
0
283
1
284
8
285
0
286
0
287
3
288
0
340
11
341
21C
342
21C
343
21C
344
21C
  0
DIMSTYLE
105
239
100
AcDbSymbolTableRecord
100
AcDbDimStyleTableRecord
  2
DIMSTYLE_1
 70
0
  3

  4

 40
1.0
 41
5.8333333333
 42
0.0625
 43
0.38
 44
0.18
 45
0.0
 46
0.0
 47
0.5
 48
0.5
140
4.1666666667
141
0.09
142
0.0
143
25.4
144
1.0
145
0.0
146
1.0
147
0.09
 71
0.0
 72
0.0
 73
0
 74
0
 75
0
 76
0
 77
1
 78
8
170
0
171
2
172
0
173
0
174
0
175
0
176
0
177
0
178
5
270
2
271
3
272
3
273
2
274
2
275
0
280
0
281
0
282
0
283
1
284
8
285
0
286
0
287
3
288
0
340
11
341
21C
342
21C
343
21C
344
21C
  0
DIMSTYLE
105
23A
100
AcDbSymbolTableRecord
100
AcDbDimStyleTableRecord
  2
DIMSTYLE_2
 70
0
  3

  4

 40
1.0
 41
5.8333333333
 42
0.0625
 43
0.38
 44
0.18
 45
0.0
 46
0.0
 47
0.3
 48
0.3
140
4.1666666667
141
0.09
142
0.0
143
25.4
144
1.0
145
0.0
146
1.0
147
0.09
 71
0.0
 72
0.0
 73
0
 74
0
 75
0
 76
0
 77
1
 78
8
170
0
171
2
172
0
173
0
174
0
175
0
176
0
177
0
178
5
270
2
271
3
272
3
273
2
274
2
275
0
280
0
281
0
282
0
283
1
284
8
285
0
286
0
287
3
288
0
340
11
341
21C
342
21C
343
21C
344
21C
  0
DIMSTYLE
105
23B
100
AcDbSymbolTableRecord
100
AcDbDimStyleTableRecord
  2
DIMSTYLE_3
 70
0
  3

  4

 40
1.0
 41
5.8333333333
 42
0.0625
 43
0.38
 44
0.18
 45
0.0
 46
0.0
 47
0.3
 48
0.3
140
4.1666666667
141
0.09
142
0.0
143
25.4
144
1.0
145
0.0
146
1.0
147
0.09
 71
0.0
 72
0.0
 73
0
 74
0
 75
0
 76
0
 77
1
 78
8
170
0
171
2
172
0
173
0
174
0
175
0
176
0
177
0
178
5
270
2
271
2
272
2
273
2
274
2
275
0
280
0
281
0
282
0
283
1
284
8
285
0
286
0
287
3
288
0
340
11
341
21C
342
21C
343
21C
344
21C
  0
DIMSTYLE
105
23C
100
AcDbSymbolTableRecord
100
AcDbDimStyleTableRecord
  2
DIMSTYLE_4
 70
0
  3

  4

 40
1.0
 41
5.8333333333
 42
0.0625
 43
0.38
 44
0.18
 45
0.0
 46
0.0
 47
0.3
 48
0.3
140
4.1666666667
141
0.09
142
0.0
143
25.4
144
1.0
145
0.0
146
1.0
147
0.09
 71
0.0
 72
0.0
 73
0
 74
0
 75
0
 76
0
 77
1
 78
8
170
0
171
2
172
0
173
0
174
0
175
0
176
0
177
0
178
5
270
2
271
2
272
2
273
2
274
2
275
0
280
0
281
0
282
0
283
1
284
8
285
0
286
0
287
3
288
0
340
11
341
21C
342
21C
343
21C
344
21C
  0
DIMSTYLE
105
23D
100
AcDbSymbolTableRecord
100
AcDbDimStyleTableRecord
  2
DIMSTYLE_5
 70
0
  3

  4

 40
1.0
 41
5.8333333333
 42
0.0625
 43
0.38
 44
0.18
 45
0.0
 46
0.0
 47
0.1
 48
0.1
140
4.1666666667
141
0.09
142
0.0
143
25.4
144
1.0
145
0.0
146
1.0
147
0.09
 71
0.0
 72
0.0
 73
0
 74
0
 75
0
 76
0
 77
1
 78
8
170
0
171
2
172
0
173
0
174
0
175
0
176
0
177
0
178
5
270
2
271
3
272
3
273
2
274
2
275
0
280
0
281
0
282
0
283
1
284
8
285
0
286
0
287
3
288
0
340
11
341
21C
342
21C
343
21C
344
21C
  0
DIMSTYLE
105
23E
100
AcDbSymbolTableRecord
100
AcDbDimStyleTableRecord
  2
DIMSTYLE_6
 70
0
  3

  4

 40
1.0
 41
5.8333333333
 42
0.0625
 43
0.38
 44
0.18
 45
0.0
 46
0.0
 47
-0.01
 48
0.04
140
4.1666666667
141
0.09
142
0.0
143
25.4
144
1.0
145
0.0
146
1.0
147
0.09
 71
0.0
 72
0.0
 73
0
 74
0
 75
0
 76
0
 77
1
 78
8
170
0
171
2
172
0
173
0
174
0
175
0
176
0
177
0
178
5
270
2
271
2
272
2
273
2
274
2
275
0
280
0
281
0
282
0
283
1
284
8
285
0
286
0
287
3
288
0
340
11
341
21C
342
21C
343
21C
344
21C
  0
DIMSTYLE
105
23F
100
AcDbSymbolTableRecord
100
AcDbDimStyleTableRecord
  2
DIMSTYLE_7
 70
0
  3

  4

 40
1.0
 41
5.8333333333
 42
0.0625
 43
0.38
 44
0.18
 45
0.0
 46
0.0
 47
0.0
 48
3.0
140
4.1666666667
141
0.09
142
0.0
143
25.4
144
1.0
145
0.0
146
0.6
147
0.09
 71
1.0
 72
0.0
 73
0
 74
0
 75
0
 76
0
 77
1
 78
8
170
0
171
2
172
0
173
0
174
0
175
0
176
0
177
0
178
5
270
2
271
2
272
2
273
2
274
2
275
0
280
0
281
0
282
0
283
1
284
8
285
0
286
0
287
3
288
0
340
11
341
21C
342
21C
343
21C
344
21C
  0
DIMSTYLE
105
240
100
AcDbSymbolTableRecord
100
AcDbDimStyleTableRecord
  2
DIMSTYLE_8
 70
0
  3

  4

 40
1.0
 41
5.8333333333
 42
0.0625
 43
0.38
 44
0.18
 45
0.0
 46
0.0
 47
0.001
 48
0.001
140
4.1666666667
141
0.09
142
0.0
143
25.4
144
1.0
145
0.0
146
1.0
147
0.09
 71
0.0
 72
0.0
 73
0
 74
0
 75
0
 76
0
 77
1
 78
8
170
0
171
2
172
0
173
0
174
0
175
0
176
0
177
0
178
5
270
2
271
3
272
3
273
2
274
2
275
0
280
0
281
0
282
0
283
1
284
8
285
0
286
0
287
3
288
0
340
11
341
21C
342
21C
343
21C
344
21C
  0
DIMSTYLE
105
241
100
AcDbSymbolTableRecord
100
AcDbDimStyleTableRecord
  2
DIMSTYLE_9
 70
0
  3

  4

 40
1.0
 41
5.8333333333
 42
0.0625
 43
0.38
 44
0.18
 45
0.0
 46
0.0
 47
0.2
 48
0.2
140
4.1666666667
141
0.09
142
0.0
143
25.4
144
1.0
145
0.0
146
1.0
147
0.09
 71
0.0
 72
0.0
 73
0
 74
0
 75
0
 76
0
 77
1
 78
8
170
0
171
2
172
0
173
0
174
0
175
0
176
0
177
0
178
5
270
2
271
2
272
2
273
2
274
2
275
0
280
0
281
0
282
0
283
1
284
8
285
0
286
0
287
3
288
0
340
11
341
21C
342
21C
343
21C
344
21C
  0
DIMSTYLE
105
242
100
AcDbSymbolTableRecord
100
AcDbDimStyleTableRecord
  2
DIMSTYLE_10
 70
0
  3

  4

 40
1.0
 41
5.8333333333
 42
0.0625
 43
0.38
 44
0.18
 45
0.0
 46
0.0
 47
0.2
 48
0.2
140
4.1666666667
141
0.09
142
0.0
143
25.4
144
1.0
145
0.0
146
1.0
147
0.09
 71
0.0
 72
0.0
 73
0
 74
0
 75
0
 76
0
 77
1
 78
8
170
0
171
2
172
0
173
0
174
0
175
0
176
0
177
0
178
5
270
2
271
3
272
3
273
2
274
2
275
0
280
0
281
0
282
0
283
1
284
8
285
0
286
0
287
3
288
0
340
11
341
21C
342
21C
343
21C
344
21C
  0
DIMSTYLE
105
243
100
AcDbSymbolTableRecord
100
AcDbDimStyleTableRecord
  2
DIMSTYLE_11
 70
0
  3

  4

 40
1.0
 41
5.8333333333
 42
0.0625
 43
0.38
 44
0.18
 45
0.0
 46
0.0
 47
0.3
 48
0.3000000003
140
4.1666666667
141
0.09
142
0.0
143
25.4
144
1.0
145
0.0
146
0.6
147
0.09
 71
1.0
 72
0.0
 73
0
 74
0
 75
0
 76
0
 77
1
 78
8
170
0
171
2
172
0
173
0
174
0
175
0
176
0
177
0
178
5
270
2
271
2
272
2
273
2
274
2
275
0
280
0
281
0
282
0
283
1
284
8
285
0
286
0
287
3
288
0
340
11
341
21C
342
21C
343
21C
344
21C
  0
DIMSTYLE
105
244
100
AcDbSymbolTableRecord
100
AcDbDimStyleTableRecord
  2
DIMSTYLE_12
 70
0
  3

  4

 40
1.0
 41
5.8333333333
 42
0.0625
 43
0.38
 44
0.18
 45
0.0
 46
0.0
 47
0.3
 48
0.3
140
4.1666666667
141
0.09
142
0.0
143
25.4
144
1.0
145
0.0
146
1.0
147
0.09
 71
0.0
 72
0.0
 73
0
 74
0
 75
0
 76
0
 77
1
 78
8
170
0
171
2
172
0
173
0
174
0
175
0
176
0
177
0
178
5
270
2
271
3
272
3
273
2
274
2
275
0
280
0
281
0
282
0
283
1
284
8
285
0
286
0
287
3
288
0
340
11
341
21C
342
21C
343
21C
344
21C
  0
ENDTAB
  0
ENDSEC
  0
SECTION
  2
BLOCKS
  0
BLOCK
  5
20
100
AcDbEntity
  8
0
100
AcDbBlockBegin
  2
*Model_Space
 70
0
 10
0.0
 20
0.0
 30
0.0
  3
*Model_Space
  1

  0
ENDBLK
  5
21
100
AcDbEntity
  8
0
100
AcDbBlockEnd
  0
BLOCK
  5
1C
100
AcDbEntity
  8
0
100
AcDbBlockBegin
  2
*Paper_Space
 70
0
 10
0.0
 20
0.0
 30
0.0
  3
*Paper_Space
  1

  0
ENDBLK
  5
1D
100
AcDbEntity
  8
0
100
AcDbBlockEnd
  0
BLOCK
  5
245
100
AcDbEntity
  8
0
100
AcDbBlockBegin
 62
2
  6
CONTINUOUS
  2
SYMBOL_70_BL3
 70
64
 10
396.0264439968
 20
268.8937519424
  3
SYMBOL_70_BL3
  1

  0
LINE
  5
246
100
AcDbEntity
  8
0
100
AcDbLine
 62
2
  6
CONTINUOUS
 10
385.6097773301
 20
271.4030480911
 11
385.6097773301
 21
266.4030480911
  0
LINE
  5
247
100
AcDbEntity
  8
0
100
AcDbLine
 62
2
  6
CONTINUOUS
 10
385.6097773301
 20
271.3937519424
 11
389.7764439968
 21
268.8937519424
  0
LINE
  5
248
100
AcDbEntity
  8
0
100
AcDbLine
 62
2
  6
CONTINUOUS
 10
389.7764439968
 20
268.8937519424
 11
385.6097773301
 21
266.3937519424
  0
LINE
  5
249
100
AcDbEntity
  8
0
100
AcDbLine
 62
2
  6
CONTINUOUS
 10
389.7764439968
 20
268.8937519424
 11
394.7764439968
 21
268.8937519424
  0
LINE
  5
24A
100
AcDbEntity
  8
0
100
AcDbLine
 62
2
  6
CONTINUOUS
 10
394.7764439968
 20
274.7270852757
 11
394.7764439968
 21
263.0604186091
  0
LINE
  5
24B
100
AcDbEntity
  8
0
100
AcDbLine
 62
2
  6
CONTINUOUS
 10
394.7764439968
 20
263.0604186091
 11
406.4431106634
 21
263.0604186091
  0
LINE
  5
24C
100
AcDbEntity
  8
0
100
AcDbLine
 62
2
  6
CONTINUOUS
 10
406.4431106634
 20
263.0604186091
 11
406.4431106634
 21
274.7270852757
  0
LINE
  5
24D
100
AcDbEntity
  8
0
100
AcDbLine
 62
2
  6
CONTINUOUS
 10
406.4431106634
 20
274.7270852757
 11
394.7764439968
 21
274.7270852757
  0
LINE
  5
24E
100
AcDbEntity
  8
0
100
AcDbLine
 62
2
  6
CONTINUOUS
 10
385.6097773301
 20
266.5650666834
 11
385.8953018985
 21
266.5650666834
  0
LINE
  5
24F
100
AcDbEntity
  8
0
100
AcDbLine
 62
2
  6
CONTINUOUS
 10
385.6097773301
 20
266.7317333501
 11
386.1730796763
 21
266.7317333501
  0
LINE
  5
250
100
AcDbEntity
  8
0
100
AcDbLine
 62
2
  6
CONTINUOUS
 10
385.6097773301
 20
266.8984000168
 11
386.450857454
 21
266.8984000168
  0
LINE
  5
251
100
AcDbEntity
  8
0
100
AcDbLine
 62
2
  6
CONTINUOUS
 10
385.6097773301
 20
267.0650666834
 11
386.7286352318
 21
267.0650666834
  0
LINE
  5
252
100
AcDbEntity
  8
0
100
AcDbLine
 62
2
  6
CONTINUOUS
 10
385.6097773301
 20
267.2317333501
 11
387.0064130096
 21
267.2317333501
  0
LINE
  5
253
100
AcDbEntity
  8
0
100
AcDbLine
 62
2
  6
CONTINUOUS
 10
385.6097773301
 20
267.3984000168
 11
387.2841907874
 21
267.3984000168
  0
LINE
  5
254
100
AcDbEntity
  8
0
100
AcDbLine
 62
2
  6
CONTINUOUS
 10
385.6097773301
 20
267.5650666834
 11
387.5619685652
 21
267.5650666834
  0
LINE
  5
255
100
AcDbEntity
  8
0
100
AcDbLine
 62
2
  6
CONTINUOUS
 10
385.6097773301
 20
267.7317333501
 11
387.8397463429
 21
267.7317333501
  0
LINE
  5
256
100
AcDbEntity
  8
0
100
AcDbLine
 62
2
  6
CONTINUOUS
 10
385.6097773301
 20
267.8984000168
 11
388.1175241207
 21
267.8984000168
  0
LINE
  5
257
100
AcDbEntity
  8
0
100
AcDbLine
 62
2
  6
CONTINUOUS
 10
385.6097773301
 20
268.0650666834
 11
388.3953018985
 21
268.0650666834
  0
LINE
  5
258
100
AcDbEntity
  8
0
100
AcDbLine
 62
2
  6
CONTINUOUS
 10
385.6097773301
 20
268.2317333501
 11
388.6730796763
 21
268.2317333501
  0
LINE
  5
259
100
AcDbEntity
  8
0
100
AcDbLine
 62
2
  6
CONTINUOUS
 10
385.6097773301
 20
268.3984000168
 11
388.950857454
 21
268.3984000168
  0
LINE
  5
25A
100
AcDbEntity
  8
0
100
AcDbLine
 62
2
  6
CONTINUOUS
 10
385.6097773301
 20
268.5650666834
 11
389.2286352318
 21
268.5650666834
  0
LINE
  5
25B
100
AcDbEntity
  8
0
100
AcDbLine
 62
2
  6
CONTINUOUS
 10
385.6097773301
 20
268.7317333501
 11
389.5064130096
 21
268.7317333501
  0
LINE
  5
25C
100
AcDbEntity
  8
0
100
AcDbLine
 62
2
  6
CONTINUOUS
 10
385.6097773301
 20
268.8984000168
 11
389.7686972061
 21
268.8984000168
  0
LINE
  5
25D
100
AcDbEntity
  8
0
100
AcDbLine
 62
2
  6
CONTINUOUS
 10
385.6097773301
 20
269.0650666834
 11
389.4909194284
 21
269.0650666834
  0
LINE
  5
25E
100
AcDbEntity
  8
0
100
AcDbLine
 62
2
  6
CONTINUOUS
 10
385.6097773301
 20
269.2317333501
 11
389.2131416506
 21
269.2317333501
  0
LINE
  5
25F
100
AcDbEntity
  8
0
100
AcDbLine
 62
2
  6
CONTINUOUS
 10
385.6097773301
 20
269.3984000168
 11
388.9353638728
 21
269.3984000168
  0
LINE
  5
260
100
AcDbEntity
  8
0
100
AcDbLine
 62
2
  6
CONTINUOUS
 10
385.6097773301
 20
269.5650666834
 11
388.657586095
 21
269.5650666834
  0
LINE
  5
261
100
AcDbEntity
  8
0
100
AcDbLine
 62
2
  6
CONTINUOUS
 10
385.6097773301
 20
269.7317333501
 11
388.3798083173
 21
269.7317333501
  0
LINE
  5
262
100
AcDbEntity
  8
0
100
AcDbLine
 62
2
  6
CONTINUOUS
 10
385.6097773301
 20
269.8984000168
 11
388.1020305395
 21
269.8984000168
  0
LINE
  5
263
100
AcDbEntity
  8
0
100
AcDbLine
 62
2
  6
CONTINUOUS
 10
385.6097773301
 20
270.0650666834
 11
387.8242527617
 21
270.0650666834
  0
LINE
  5
264
100
AcDbEntity
  8
0
100
AcDbLine
 62
2
  6
CONTINUOUS
 10
385.6097773301
 20
270.2317333501
 11
387.5464749839
 21
270.2317333501
  0
LINE
  5
265
100
AcDbEntity
  8
0
100
AcDbLine
 62
2
  6
CONTINUOUS
 10
385.6097773301
 20
270.3984000168
 11
387.2686972061
 21
270.3984000168
  0
LINE
  5
266
100
AcDbEntity
  8
0
100
AcDbLine
 62
2
  6
CONTINUOUS
 10
385.6097773301
 20
270.5650666834
 11
386.9909194284
 21
270.5650666834
  0
LINE
  5
267
100
AcDbEntity
  8
0
100
AcDbLine
 62
2
  6
CONTINUOUS
 10
385.6097773301
 20
270.7317333501
 11
386.7131416506
 21
270.7317333501
  0
LINE
  5
268
100
AcDbEntity
  8
0
100
AcDbLine
 62
2
  6
CONTINUOUS
 10
385.6097773301
 20
270.8984000168
 11
386.4353638728
 21
270.8984000168
  0
LINE
  5
269
100
AcDbEntity
  8
0
100
AcDbLine
 62
2
  6
CONTINUOUS
 10
385.6097773301
 20
271.0650666834
 11
386.157586095
 21
271.0650666834
  0
LINE
  5
26A
100
AcDbEntity
  8
0
100
AcDbLine
 62
2
  6
CONTINUOUS
 10
385.6097773301
 20
271.2317333501
 11
385.8798083173
 21
271.2317333501
  0
ENDBLK
  5
26B
100
AcDbEntity
  8
0
  6
BYBLOCK
 62
0
100
AcDbBlockEnd
  0
BLOCK
  5
26C
100
AcDbEntity
  8
0
100
AcDbBlockBegin
 62
2
  6
CONTINUOUS
  2
SYMBOL_47_BL2
 70
64
 10
479.2336753813
 20
406.9338413616
  3
SYMBOL_47_BL2
  1

  0
LINE
  5
26D
100
AcDbEntity
  8
0
100
AcDbLine
 62
2
  6
CONTINUOUS
 10
452.5670155379
 20
412.7706628135
 11
452.5670155379
 21
401.1040000987
  0
LINE
  5
26E
100
AcDbEntity
  8
0
100
AcDbLine
 62
2
  6
CONTINUOUS
 10
452.5670155379
 20
401.1040000987
 11
489.2336697844
 21
401.1040000987
  0
LINE
  5
26F
100
AcDbEntity
  8
0
100
AcDbLine
 62
2
  6
CONTINUOUS
 10
497.8034791095
 20
401.0724216086
 11
497.8034791095
 21
412.7952611146
  0
LINE
  5
270
100
AcDbEntity
  8
0
100
AcDbLine
 62
2
  6
CONTINUOUS
 10
489.2336697844
 20
412.7706628135
 11
452.5670155379
 21
412.7706628135
  0
LINE
  5
271
100
AcDbEntity
  8
0
100
AcDbLine
 62
2
  6
CONTINUOUS
 10
464.2336782527
 20
412.7706628135
 11
464.2336782527
 21
401.1040000987
  0
LINE
  5
272
100
AcDbEntity
  8
0
100
AcDbLine
 62
2
  6
CONTINUOUS
 10
489.2336697844
 20
412.7706628135
 11
489.2336697844
 21
401.1040000987
  0
LINE
  5
273
100
AcDbEntity
  8
0
100
AcDbLine
 62
2
  6
CONTINUOUS
 10
489.2336697844
 20
412.7706628135
 11
505.8651315025
 21
412.7952611146
  0
LINE
  5
274
100
AcDbEntity
  8
0
100
AcDbLine
 62
2
  6
CONTINUOUS
 10
489.2137708829
 20
401.0372178864
 11
505.9003352247
 21
401.0724216086
  0
LINE
  5
275
100
AcDbEntity
  8
0
100
AcDbLine
 62
2
  6
CONTINUOUS
 10
505.8651315025
 20
401.1076253309
 11
505.8651315025
 21
412.8304648368
  0
TEXT
  5
276
100
AcDbEntity
  8
0
100
AcDbText
 62
5
  6
CONTINUOUS
 10
455.014579106
 20
405.2331500239
  7
TEXTSTYLE_2
 40
4.000000128
  1
h
 41
1.0
 72
0
100
AcDbText
  0
ENDBLK
  5
277
100
AcDbEntity
  8
0
  6
BYBLOCK
 62
0
100
AcDbBlockEnd
  0
BLOCK
  5
278
100
AcDbEntity
  8
0
100
AcDbBlockBegin
 62
2
  6
CONTINUOUS
  2
SYMBOL_38_BL1
 70
64
 10
485.4431106634
 20
379.258171922
  3
SYMBOL_38_BL1
  1

  0
LINE
  5
279
100
AcDbEntity
  8
0
100
AcDbLine
 62
2
  6
CONTINUOUS
 10
487.9477587378
 20
368.8415052554
 11
482.9477587378
 21
368.8415052554
  0
LINE
  5
27A
100
AcDbEntity
  8
0
100
AcDbLine
 62
2
  6
CONTINUOUS
 10
479.6097773301
 20
389.6748385887
 11
491.2764439968
 21
389.6748385887
  0
LINE
  5
27B
100
AcDbEntity
  8
0
100
AcDbLine
 62
2
  6
CONTINUOUS
 10
491.2764439968
 20
389.6748385887
 11
491.2764439968
 21
378.008171922
  0
LINE
  5
27C
100
AcDbEntity
  8
0
100
AcDbLine
 62
2
  6
CONTINUOUS
 10
491.2764439968
 20
378.008171922
 11
479.6097773301
 21
378.008171922
  0
LINE
  5
27D
100
AcDbEntity
  8
0
100
AcDbLine
 62
2
  6
CONTINUOUS
 10
479.6097773301
 20
378.008171922
 11
479.6097773301
 21
389.6748385887
  0
LINE
  5
27E
100
AcDbEntity
  8
0
100
AcDbLine
 62
2
  6
CONTINUOUS
 10
482.9384625891
 20
368.8415052554
 11
485.4431106634
 21
373.008171922
  0
LINE
  5
27F
100
AcDbEntity
  8
0
100
AcDbLine
 62
2
  6
CONTINUOUS
 10
485.4431106634
 20
373.008171922
 11
487.9384625891
 21
368.8415052554
  0
LINE
  5
280
100
AcDbEntity
  8
0
100
AcDbLine
 62
2
  6
CONTINUOUS
 10
485.4431106634
 20
373.008171922
 11
485.4431106634
 21
378.008171922
  0
LINE
  5
281
100
AcDbEntity
  8
0
100
AcDbLine
 62
2
  6
CONTINUOUS
 10
483.1097773301
 20
368.8415052554
 11
483.1097773301
 21
369.1264999531
  0
LINE
  5
282
100
AcDbEntity
  8
0
100
AcDbLine
 62
2
  6
CONTINUOUS
 10
483.2764439968
 20
368.8415052554
 11
483.2764439968
 21
369.4037622366
  0
LINE
  5
283
100
AcDbEntity
  8
0
100
AcDbLine
 62
2
  6
CONTINUOUS
 10
483.4431106634
 20
368.8415052554
 11
483.4431106634
 21
369.6810245201
  0
LINE
  5
284
100
AcDbEntity
  8
0
100
AcDbLine
 62
2
  6
CONTINUOUS
 10
483.6097773301
 20
368.8415052554
 11
483.6097773301
 21
369.9582868036
  0
LINE
  5
285
100
AcDbEntity
  8
0
100
AcDbLine
 62
2
  6
CONTINUOUS
 10
483.7764439968
 20
368.8415052554
 11
483.7764439968
 21
370.2355490871
  0
LINE
  5
286
100
AcDbEntity
  8
0
100
AcDbLine
 62
2
  6
CONTINUOUS
 10
483.9431106634
 20
368.8415052554
 11
483.9431106634
 21
370.5128113706
  0
LINE
  5
287
100
AcDbEntity
  8
0
100
AcDbLine
 62
2
  6
CONTINUOUS
 10
484.1097773301
 20
368.8415052554
 11
484.1097773301
 21
370.7900736541
  0
LINE
  5
288
100
AcDbEntity
  8
0
100
AcDbLine
 62
2
  6
CONTINUOUS
 10
484.2764439968
 20
368.8415052554
 11
484.2764439968
 21
371.0673359376
  0
LINE
  5
289
100
AcDbEntity
  8
0
100
AcDbLine
 62
2
  6
CONTINUOUS
 10
484.4431106634
 20
368.8415052554
 11
484.4431106634
 21
371.3445982211
  0
LINE
  5
28A
100
AcDbEntity
  8
0
100
AcDbLine
 62
2
  6
CONTINUOUS
 10
484.6097773301
 20
368.8415052554
 11
484.6097773301
 21
371.6218605046
  0
LINE
  5
28B
100
AcDbEntity
  8
0
100
AcDbLine
 62
2
  6
CONTINUOUS
 10
484.7764439968
 20
368.8415052554
 11
484.7764439968
 21
371.8991227881
  0
LINE
  5
28C
100
AcDbEntity
  8
0
100
AcDbLine
 62
2
  6
CONTINUOUS
 10
484.9431106634
 20
368.8415052554
 11
484.9431106634
 21
372.1763850715
  0
LINE
  5
28D
100
AcDbEntity
  8
0
100
AcDbLine
 62
2
  6
CONTINUOUS
 10
485.1097773301
 20
368.8415052554
 11
485.1097773301
 21
372.453647355
  0
LINE
  5
28E
100
AcDbEntity
  8
0
100
AcDbLine
 62
2
  6
CONTINUOUS
 10
485.2764439968
 20
368.8415052554
 11
485.2764439968
 21
372.7309096385
  0
LINE
  5
28F
100
AcDbEntity
  8
0
100
AcDbLine
 62
2
  6
CONTINUOUS
 10
485.4431106634
 20
368.8415052554
 11
485.4431106634
 21
373.008171922
  0
LINE
  5
290
100
AcDbEntity
  8
0
100
AcDbLine
 62
2
  6
CONTINUOUS
 10
485.6097773301
 20
368.8415052554
 11
485.6097773301
 21
372.7298767295
  0
LINE
  5
291
100
AcDbEntity
  8
0
100
AcDbLine
 62
2
  6
CONTINUOUS
 10
485.7764439968
 20
368.8415052554
 11
485.7764439968
 21
372.4515815371
  0
LINE
  5
292
100
AcDbEntity
  8
0
100
AcDbLine
 62
2
  6
CONTINUOUS
 10
485.9431106634
 20
368.8415052554
 11
485.9431106634
 21
372.1732863446
  0
LINE
  5
293
100
AcDbEntity
  8
0
100
AcDbLine
 62
2
  6
CONTINUOUS
 10
486.1097773301
 20
368.8415052554
 11
486.1097773301
 21
371.8949911521
  0
LINE
  5
294
100
AcDbEntity
  8
0
100
AcDbLine
 62
2
  6
CONTINUOUS
 10
486.2764439968
 20
368.8415052554
 11
486.2764439968
 21
371.6166959596
  0
LINE
  5
295
100
AcDbEntity
  8
0
100
AcDbLine
 62
2
  6
CONTINUOUS
 10
486.4431106634
 20
368.8415052554
 11
486.4431106634
 21
371.3384007672
  0
LINE
  5
296
100
AcDbEntity
  8
0
100
AcDbLine
 62
2
  6
CONTINUOUS
 10
486.6097773301
 20
368.8415052554
 11
486.6097773301
 21
371.0601055747
  0
LINE
  5
297
100
AcDbEntity
  8
0
100
AcDbLine
 62
2
  6
CONTINUOUS
 10
486.7764439968
 20
368.8415052554
 11
486.7764439968
 21
370.7818103822
  0
LINE
  5
298
100
AcDbEntity
  8
0
100
AcDbLine
 62
2
  6
CONTINUOUS
 10
486.9431106634
 20
368.8415052554
 11
486.9431106634
 21
370.5035151897
  0
LINE
  5
299
100
AcDbEntity
  8
0
100
AcDbLine
 62
2
  6
CONTINUOUS
 10
487.1097773301
 20
368.8415052554
 11
487.1097773301
 21
370.2252199972
  0
LINE
  5
29A
100
AcDbEntity
  8
0
100
AcDbLine
 62
2
  6
CONTINUOUS
 10
487.2764439968
 20
368.8415052554
 11
487.2764439968
 21
369.9469248048
  0
LINE
  5
29B
100
AcDbEntity
  8
0
100
AcDbLine
 62
2
  6
CONTINUOUS
 10
487.4431106634
 20
368.8415052554
 11
487.4431106634
 21
369.6686296123
  0
LINE
  5
29C
100
AcDbEntity
  8
0
100
AcDbLine
 62
2
  6
CONTINUOUS
 10
487.6097773301
 20
368.8415052554
 11
487.6097773301
 21
369.3903344198
  0
LINE
  5
29D
100
AcDbEntity
  8
0
100
AcDbLine
 62
2
  6
CONTINUOUS
 10
487.7764439968
 20
368.8415052554
 11
487.7764439968
 21
369.1120392273
  0
ENDBLK
  5
29E
100
AcDbEntity
  8
0
  6
BYBLOCK
 62
0
100
AcDbBlockEnd
  0
BLOCK
  5
29F
100
AcDbEntity
  8
0
100
AcDbBlockBegin
 62
2
  6
CONTINUOUS
  2
SYMBOL_64_BL0
 70
64
 10
457.1995664769
 20
258.4101873256
  3
SYMBOL_64_BL0
  1

  0
TEXT
  5
2A0
100
AcDbEntity
  8
0
100
AcDbText
 62
5
  6
CONTINUOUS
 10
446.0090902864
 20
255.9101873256
  7
TEXTSTYLE_2
 40
5.0
  1
n
 41
1.0
 72
0
100
AcDbText
  0
TEXT
  5
2A1
100
AcDbEntity
  8
0
100
AcDbText
 62
5
  6
CONTINUOUS
 10
452.6757569531
 20
255.9101873256
  7
STANDARD
 40
5.0
  1
    
 41
0.7857142857
 72
0
100
AcDbText
  0
TEXT
  5
2A2
100
AcDbEntity
  8
0
100
AcDbText
 62
5
  6
CONTINUOUS
 10
434.0328998103
 20
256.4101873256
  7
TEXTSTYLE_2
 40
4.0
  1
b
 41
1.0
 72
0
100
AcDbText
  0
LINE
  5
2A3
100
AcDbEntity
  8
0
100
AcDbLine
 62
2
  6
CONTINUOUS
 10
433.0328998103
 20
264.2435206589
 11
433.0328998103
 21
252.5768539923
  0
LINE
  5
2A4
100
AcDbEntity
  8
0
100
AcDbLine
 62
2
  6
CONTINUOUS
 10
433.0328998103
 20
252.5768539923
 11
469.6995664769
 21
252.5768539923
  0
LINE
  5
2A5
100
AcDbEntity
  8
0
100
AcDbLine
 62
2
  6
CONTINUOUS
 10
481.3662331436
 20
252.5768539923
 11
481.3662331436
 21
264.2435206589
  0
LINE
  5
2A6
100
AcDbEntity
  8
0
100
AcDbLine
 62
2
  6
CONTINUOUS
 10
469.6995664769
 20
264.2435206589
 11
433.0328998103
 21
264.2435206589
  0
LINE
  5
2A7
100
AcDbEntity
  8
0
100
AcDbLine
 62
2
  6
CONTINUOUS
 10
444.6995664769
 20
264.2435206589
 11
444.6995664769
 21
252.5768539923
  0
LINE
  5
2A8
100
AcDbEntity
  8
0
100
AcDbLine
 62
2
  6
CONTINUOUS
 10
469.6995664769
 20
264.2435206589
 11
469.6995664769
 21
252.5768539923
  0
LINE
  5
2A9
100
AcDbEntity
  8
0
100
AcDbLine
 62
2
  6
CONTINUOUS
 10
469.6995664769
 20
264.2435206589
 11
481.3662331436
 21
264.2435206589
  0
LINE
  5
2AA
100
AcDbEntity
  8
0
100
AcDbLine
 62
2
  6
CONTINUOUS
 10
469.6995664769
 20
252.5768539923
 11
481.3662331436
 21
252.5768539923
  0
ENDBLK
  5
2AB
100
AcDbEntity
  8
0
  6
BYBLOCK
 62
0
100
AcDbBlockEnd
  0
BLOCK
  5
2AC
100
AcDbEntity
  8
0
100
AcDbBlockBegin
  2
_FILLED
 70
64
 10
0.0
 20
0.0
  3
_FILLED
  1

  0
SOLID
  5
2AD
100
AcDbEntity
  8
0
  6
BYBLOCK
 62
0
100
AcDbTrace
 10
0.0
 20
0.0
 11
-1.0
 21
0.125
 12
-1.0
 22
-0.125
 13
-1.0
 23
-0.125
  0
ENDBLK
  5
2AE
100
AcDbEntity
  8
0
  6
BYBLOCK
 62
0
100
AcDbBlockEnd
  0
BLOCK
  5
2AF
100
AcDbEntity
  8
ZEICHNUNGSBEMASSUNGEN
100
AcDbBlockBegin
 62
2
  6
CONTINUOUS
  2
*D0
 70
65
 10
0.0
 20
0.0
  3
*D0
  1

  0
MTEXT
  5
2B0
100
AcDbEntity
  8
ZEICHNUNGSBEMASSUNGEN
100
AcDbMText
 62
5
  6
CONTINUOUS
  7
STANDARD
 71
2
 72
1
 10
334.3182308395
 20
429.0498385887
 30
0.0
 11
1.0
 21
0.0
 31
0.0
 44
0.9
  1
169.5
 40
4.1666666667
 41
14.2857142857
  0
LINE
  5
2B1
100
AcDbEntity
  8
ZEICHNUNGSBEMASSUNGEN
100
AcDbLine
 62
2
  6
CONTINUOUS
 10
427.1097773301
 20
339.008171922
 11
427.1097773301
 21
426.3415052554
  0
LINE
  5
2B2
100
AcDbEntity
  8
ZEICHNUNGSBEMASSUNGEN
100
AcDbLine
 62
2
  6
CONTINUOUS
 10
257.6097773301
 20
329.6647489678
 11
257.6097773301
 21
426.3415052554
  0
LINE
  5
2B3
100
AcDbEntity
  8
ZEICHNUNGSBEMASSUNGEN
100
AcDbLine
 62
2
  6
CONTINUOUS
 10
427.1097773301
 20
423.8415052554
 11
342.3597773301
 21
423.8415052554
  0
LINE
  5
2B4
100
AcDbEntity
  8
ZEICHNUNGSBEMASSUNGEN
100
AcDbLine
 62
2
  6
CONTINUOUS
 10
257.6097773301
 20
423.8415052554
 11
342.3597773301
 21
423.8415052554
  0
INSERT
  5
2B5
100
AcDbEntity
  8
ZEICHNUNGSBEMASSUNGEN
100
AcDbBlockReference
 62
2
  6
CONTINUOUS
  2
_FILLED
 10
427.1097773301
 20
423.8415052554
 41
5.8333333333
 42
5.8333333333
 43
5.8333333333
  0
INSERT
  5
2B6
100
AcDbEntity
  8
ZEICHNUNGSBEMASSUNGEN
100
AcDbBlockReference
 62
2
  6
CONTINUOUS
  2
_FILLED
 10
257.6097773301
 20
423.8415052554
 41
5.8333333333
 42
5.8333333333
 43
5.8333333333
 50
180.0
  0
ENDBLK
  5
2B7
100
AcDbEntity
  8
0
  6
BYBLOCK
 62
0
100
AcDbBlockEnd
  0
BLOCK
  5
2B8
100
AcDbEntity
  8
ZEICHNUNGSBEMASSUNGEN
100
AcDbBlockBegin
 62
2
  6
CONTINUOUS
  2
*D1
 70
65
 10
0.0
 20
0.0
  3
*D1
  1

  0
MTEXT
  5
2B9
100
AcDbEntity
  8
ZEICHNUNGSBEMASSUNGEN
100
AcDbMText
 62
5
  6
CONTINUOUS
  7
STANDARD
 71
2
 72
1
 10
346.1097773301
 20
412.383171922
 30
0.0
 11
1.0
 21
0.0
 31
0.0
 44
0.9
  1
79
 40
4.1666666667
 41
6.5476190476
  0
LINE
  5
2BA
100
AcDbEntity
  8
ZEICHNUNGSBEMASSUNGEN
100
AcDbLine
 62
2
  6
CONTINUOUS
 10
385.6097773301
 20
369.6748385887
 11
385.6097773301
 21
409.6748385887
  0
LINE
  5
2BB
100
AcDbEntity
  8
ZEICHNUNGSBEMASSUNGEN
100
AcDbLine
 62
2
  6
CONTINUOUS
 10
306.6097773301
 20
330.3208465288
 11
306.6097773301
 21
409.6748385887
  0
LINE
  5
2BC
100
AcDbEntity
  8
ZEICHNUNGSBEMASSUNGEN
100
AcDbLine
 62
2
  6
CONTINUOUS
 10
385.6097773301
 20
407.1748385887
 11
346.1097773301
 21
407.1748385887
  0
LINE
  5
2BD
100
AcDbEntity
  8
ZEICHNUNGSBEMASSUNGEN
100
AcDbLine
 62
2
  6
CONTINUOUS
 10
306.6097773301
 20
407.1748385887
 11
346.1097773301
 21
407.1748385887
  0
INSERT
  5
2BE
100
AcDbEntity
  8
ZEICHNUNGSBEMASSUNGEN
100
AcDbBlockReference
 62
2
  6
CONTINUOUS
  2
_FILLED
 10
385.6097773301
 20
407.1748385887
 41
5.8333333333
 42
5.8333333333
 43
5.8333333333
  0
INSERT
  5
2BF
100
AcDbEntity
  8
ZEICHNUNGSBEMASSUNGEN
100
AcDbBlockReference
 62
2
  6
CONTINUOUS
  2
_FILLED
 10
306.6097773301
 20
407.1748385887
 41
5.8333333333
 42
5.8333333333
 43
5.8333333333
 50
180.0
  0
ENDBLK
  5
2C0
100
AcDbEntity
  8
0
  6
BYBLOCK
 62
0
100
AcDbBlockEnd
  0
BLOCK
  5
2C1
100
AcDbEntity
  8
0
100
AcDbBlockBegin
 62
2
  6
CONTINUOUS
  2
*D2
 70
65
 10
0.0
 20
0.0
  3
*D2
  1

  0
MTEXT
  5
2C2
100
AcDbEntity
  8
0
100
AcDbMText
 62
5
  6
CONTINUOUS
  7
TEXTSTYLE_2
 71
2
 72
1
 10
97.3986522643
 20
409.0498385887
 30
0.0
 11
1.0
 21
0.0
 31
0.0
 44
0.9
  1
{\Fgdt;o}\Ftxt;90
 40
4.1666666667
 41
12.2767857143
  0
LINE
  5
2C3
100
AcDbEntity
  8
0
100
AcDbLine
 62
2
  6
CONTINUOUS
 10
52.3986522643
 20
367.0444031524
 11
52.3986522643
 21
406.3415052554
  0
LINE
  5
2C4
100
AcDbEntity
  8
0
100
AcDbLine
 62
2
  6
CONTINUOUS
 10
142.3986522643
 20
367.0444031524
 11
142.3986522643
 21
406.3415052554
  0
LINE
  5
2C5
100
AcDbEntity
  8
0
100
AcDbLine
 62
2
  6
CONTINUOUS
 10
52.3986522643
 20
403.8415052554
 11
97.3986522643
 21
403.8415052554
  0
LINE
  5
2C6
100
AcDbEntity
  8
0
100
AcDbLine
 62
2
  6
CONTINUOUS
 10
142.3986522643
 20
403.8415052554
 11
97.3986522643
 21
403.8415052554
  0
INSERT
  5
2C7
100
AcDbEntity
  8
0
100
AcDbBlockReference
 62
2
  6
CONTINUOUS
  2
_FILLED
 10
52.3986522643
 20
403.8415052554
 41
5.8333333333
 42
5.8333333333
 43
5.8333333333
 50
180.0
  0
INSERT
  5
2C8
100
AcDbEntity
  8
0
100
AcDbBlockReference
 62
2
  6
CONTINUOUS
  2
_FILLED
 10
142.3986522643
 20
403.8415052554
 41
5.8333333333
 42
5.8333333333
 43
5.8333333333
  0
ENDBLK
  5
2C9
100
AcDbEntity
  8
0
  6
BYBLOCK
 62
0
100
AcDbBlockEnd
  0
BLOCK
  5
2CA
100
AcDbEntity
  8
0
100
AcDbBlockBegin
 62
2
  6
CONTINUOUS
  2
*D3
 70
65
 10
0.0
 20
0.0
  3
*D3
  1

  0
MTEXT
  5
2CB
100
AcDbEntity
  8
0
100
AcDbMText
 62
5
  6
CONTINUOUS
  7
TEXTSTYLE_2
 71
1
 72
1
 10
149.4042188932
 20
284.4082674629
 30
0.0
 11
0.7086201029
 21
-0.7055902137
 31
0.0
 44
0.9
  1
{\Fgdt;n}\Ftxt;116
 40
4.1666666667
 41
13.5912698413
  0
LINE
  5
2CC
100
AcDbEntity
  8
0
100
AcDbLine
 62
2
  6
CONTINUOUS
 10
138.4986182354
 20
287.9172728597
 11
97.3986522643
 21
328.8415052554
  0
LINE
  5
2CD
100
AcDbEntity
  8
0
100
AcDbLine
 62
2
  6
CONTINUOUS
 10
97.3986522643
 20
328.8415052554
 11
155.3603168976
 21
271.127670768
  0
LINE
  5
2CE
100
AcDbEntity
  8
0
100
AcDbLine
 62
2
  6
CONTINUOUS
 10
56.2986862932
 20
369.765737651
 11
97.3986522643
 21
328.8415052554
  0
INSERT
  5
2CF
100
AcDbEntity
  8
0
100
AcDbBlockReference
 62
2
  6
CONTINUOUS
  2
_FILLED
 10
138.4986182354
 20
287.9172728597
 41
5.8333333333
 42
5.8333333333
 43
5.8333333333
 50
315.1227537359
  0
INSERT
  5
2D0
100
AcDbEntity
  8
0
100
AcDbBlockReference
 62
2
  6
CONTINUOUS
  2
_FILLED
 10
56.2986862932
 20
369.765737651
 41
5.8333333333
 42
5.8333333333
 43
5.8333333333
 50
135.1227537359
  0
ENDBLK
  5
2D1
100
AcDbEntity
  8
0
  6
BYBLOCK
 62
0
100
AcDbBlockEnd
  0
BLOCK
  5
2D2
100
AcDbEntity
  8
0
100
AcDbBlockBegin
 62
2
  6
CONTINUOUS
  2
*D4
 70
65
 10
0.0
 20
0.0
  3
*D4
  1

  0
MTEXT
  5
2D3
100
AcDbEntity
  8
0
100
AcDbMText
 62
5
  6
CONTINUOUS
  7
STANDARD
 71
3
 72
1
 10
377.9834787935
 20
395.7165052554
 30
0.0
 11
1.0
 21
0.0
 31
0.0
 44
0.9
  1
3
 40
4.1666666667
 41
2.9761904762
  0
LINE
  5
2D4
100
AcDbEntity
  8
0
100
AcDbLine
 62
2
  6
CONTINUOUS
 10
388.6097773301
 20
369.6748385887
 11
388.6097773301
 21
393.008171922
  0
LINE
  5
2D5
100
AcDbEntity
  8
0
100
AcDbLine
 62
2
  6
CONTINUOUS
 10
385.6097773301
 20
369.6748385887
 11
385.6097773301
 21
393.008171922
  0
LINE
  5
2D6
100
AcDbEntity
  8
0
100
AcDbLine
 62
2
  6
CONTINUOUS
 10
388.6097773301
 20
390.508171922
 11
398.6097773301
 21
390.508171922
  0
LINE
  5
2D7
100
AcDbEntity
  8
0
100
AcDbLine
 62
2
  6
CONTINUOUS
 10
398.6097773301
 20
390.508171922
 11
387.1097773301
 21
390.508171922
  0
LINE
  5
2D8
100
AcDbEntity
  8
0
100
AcDbLine
 62
2
  6
CONTINUOUS
 10
385.6097773301
 20
390.508171922
 11
375.0072883173
 21
390.508171922
  0
LINE
  5
2D9
100
AcDbEntity
  8
0
100
AcDbLine
 62
2
  6
CONTINUOUS
 10
375.0072883173
 20
390.508171922
 11
387.1097773301
 21
390.508171922
  0
INSERT
  5
2DA
100
AcDbEntity
  8
0
100
AcDbBlockReference
 62
2
  6
CONTINUOUS
  2
_FILLED
 10
388.6097773301
 20
390.508171922
 41
5.8333333333
 42
5.8333333333
 43
5.8333333333
 50
180.0
  0
INSERT
  5
2DB
100
AcDbEntity
  8
0
100
AcDbBlockReference
 62
2
  6
CONTINUOUS
  2
_FILLED
 10
385.6097773301
 20
390.508171922
 41
5.8333333333
 42
5.8333333333
 43
5.8333333333
  0
ENDBLK
  5
2DC
100
AcDbEntity
  8
0
  6
BYBLOCK
 62
0
100
AcDbBlockEnd
  0
BLOCK
  5
2DD
100
AcDbEntity
  8
0
100
AcDbBlockBegin
 62
2
  6
CONTINUOUS
  2
*D5
 70
65
 10
0.0
 20
0.0
  3
*D5
  1

  0
MTEXT
  5
2DE
100
AcDbEntity
  8
0
100
AcDbMText
 62
5
  6
CONTINUOUS
  7
TEXTSTYLE_2
 71
2
 72
1
 10
480.2347773301
 20
326.1819384251
 30
0.0
 11
0.0
 21
1.0
 31
0.0
 44
0.9
  1
{\Fgdt;n}\Ftxt;80
 40
4.1666666667
 41
12.1031746032
  0
LINE
  5
2DF
100
AcDbEntity
  8
0
100
AcDbLine
 62
2
  6
CONTINUOUS
 10
386.4431106634
 20
288.8415052554
 11
431.1455434959
 21
288.8415052554
  0
LINE
  5
2E0
100
AcDbEntity
  8
0
100
AcDbLine
 62
2
  6
CONTINUOUS
 10
473.7759122764
 20
288.8415052554
 11
487.9431106634
 21
288.8415052554
  0
LINE
  5
2E1
100
AcDbEntity
  8
0
100
AcDbLine
 62
2
  6
CONTINUOUS
 10
386.4431106634
 20
368.8415052554
 11
487.9431106634
 21
368.8415052554
  0
LINE
  5
2E2
100
AcDbEntity
  8
0
100
AcDbLine
 62
2
  6
CONTINUOUS
 10
485.4431106634
 20
288.8415052554
 11
485.4431106634
 21
328.8415052554
  0
LINE
  5
2E3
100
AcDbEntity
  8
0
100
AcDbLine
 62
2
  6
CONTINUOUS
 10
485.4431106634
 20
368.8415052554
 11
485.4431106634
 21
328.8415052554
  0
INSERT
  5
2E4
100
AcDbEntity
  8
0
100
AcDbBlockReference
 62
2
  6
CONTINUOUS
  2
_FILLED
 10
485.4431106634
 20
288.8415052554
 41
5.8333333333
 42
5.8333333333
 43
5.8333333333
 50
270.0
  0
INSERT
  5
2E5
100
AcDbEntity
  8
0
100
AcDbBlockReference
 62
2
  6
CONTINUOUS
  2
_FILLED
 10
485.4431106634
 20
368.8415052554
 41
5.8333333333
 42
5.8333333333
 43
5.8333333333
 50
90.0
  0
ENDBLK
  5
2E6
100
AcDbEntity
  8
0
  6
BYBLOCK
 62
0
100
AcDbBlockEnd
  0
BLOCK
  5
2E7
100
AcDbEntity
  8
0
100
AcDbBlockBegin
 62
2
  6
CONTINUOUS
  2
*D6
 70
65
 10
0.0
 20
0.0
  3
*D6
  1

  0
TEXT
  5
2E8
100
AcDbEntity
  8
0
100
AcDbText
 62
5
  6
CONTINUOUS
 10
466.6813583162
 20
320.7293966235
  7
TEXTSTYLE_2
 40
4.1666666667
  1
n
 50
89.906592694
 41
1.0
 72
1
 11
466.6858868281
 21
323.5071707099
100
AcDbText
  0
TEXT
  5
2E9
100
AcDbEntity
  8
0
100
AcDbText
 62
5
  6
CONTINUOUS
 10
466.6904153401
 20
326.2849447963
  7
STANDARD
 40
4.1666666667
  1
40
 50
89.906592694
 41
0.7857142857
 72
1
 11
466.6957525149
 21
329.5587499696
100
AcDbText
  0
TEXT
  5
2EA
100
AcDbEntity
  8
0
100
AcDbText
 62
5
  6
CONTINUOUS
 10
464.201093012
 20
332.8366308037
  7
TEXTSTYLE_3
 40
2.5
  1
 0
 50
89.906592694
 41
0.7857142857
 72
1
 11
464.2042953169
 21
334.8009139077
100
AcDbText
  0
TEXT
  5
2EB
100
AcDbEntity
  8
0
100
AcDbText
 62
5
  6
CONTINUOUS
 10
467.5344219157
 20
332.8311965893
  7
TEXTSTYLE_3
 40
2.5
  1
-3
 50
89.906592694
 41
0.7142857143
 72
1
 11
467.537333102
 21
334.6169085021
100
AcDbText
  0
LINE
  5
2EC
100
AcDbEntity
  8
0
100
AcDbLine
 62
2
  6
CONTINUOUS
 10
391.9431106634
 20
348.8360976114
 11
471.310308213
 21
348.7067079297
  0
LINE
  5
2ED
100
AcDbEntity
  8
0
100
AcDbLine
 62
2
  6
CONTINUOUS
 10
391.9431106634
 20
308.8360444561
 11
433.1557970978
 21
308.7688567949
  0
LINE
  5
2EE
100
AcDbEntity
  8
0
100
AcDbLine
 62
2
  6
CONTINUOUS
 10
461.1846245139
 20
308.7231623371
 11
471.2450976405
 21
308.706761085
  0
LINE
  5
2EF
100
AcDbEntity
  8
0
100
AcDbLine
 62
2
  6
CONTINUOUS
 10
468.8103115352
 20
348.7107835905
 11
468.777706249
 21
328.7108101681
  0
LINE
  5
2F0
100
AcDbEntity
  8
0
100
AcDbLine
 62
2
  6
CONTINUOUS
 10
468.7451009627
 20
308.7108367458
 11
468.777706249
 21
328.7108101681
  0
INSERT
  5
2F1
100
AcDbEntity
  8
0
100
AcDbBlockReference
 62
2
  6
CONTINUOUS
  2
_FILLED
 10
468.8103115352
 20
348.7107835905
 41
5.8333333333
 42
5.8333333333
 43
5.8333333333
 50
89.906592694
  0
INSERT
  5
2F2
100
AcDbEntity
  8
0
100
AcDbBlockReference
 62
2
  6
CONTINUOUS
  2
_FILLED
 10
468.7451009627
 20
308.7108367458
 41
5.8333333333
 42
5.8333333333
 43
5.8333333333
 50
269.906592694
  0
ENDBLK
  5
2F3
100
AcDbEntity
  8
0
  6
BYBLOCK
 62
0
100
AcDbBlockEnd
  0
BLOCK
  5
2F4
100
AcDbEntity
  8
0
100
AcDbBlockBegin
 62
2
  6
CONTINUOUS
  2
*D7
 70
65
 10
0.0
 20
0.0
  3
*D7
  1

  0
MTEXT
  5
2F5
100
AcDbEntity
  8
0
100
AcDbMText
 62
5
  6
CONTINUOUS
  7
STANDARD
 71
2
 72
1
 10
409.1097773301
 20
404.0498385887
 30
0.0
 11
1.0
 21
0.0
 31
0.0
 44
0.9
  1
36
 40
4.1666666667
 41
6.25
  0
LINE
  5
2F6
100
AcDbEntity
  8
0
100
AcDbLine
 62
2
  6
CONTINUOUS
 10
391.1097773301
 20
349.6748385887
 11
391.1097773301
 21
401.3415052554
  0
LINE
  5
2F7
100
AcDbEntity
  8
0
100
AcDbLine
 62
2
  6
CONTINUOUS
 10
427.1097773301
 20
339.008171922
 11
427.1097773301
 21
401.3415052554
  0
LINE
  5
2F8
100
AcDbEntity
  8
0
100
AcDbLine
 62
2
  6
CONTINUOUS
 10
391.1097773301
 20
398.8415052554
 11
409.1097773301
 21
398.8415052554
  0
LINE
  5
2F9
100
AcDbEntity
  8
0
100
AcDbLine
 62
2
  6
CONTINUOUS
 10
427.1097773301
 20
398.8415052554
 11
409.1097773301
 21
398.8415052554
  0
INSERT
  5
2FA
100
AcDbEntity
  8
0
100
AcDbBlockReference
 62
2
  6
CONTINUOUS
  2
_FILLED
 10
391.1097773301
 20
398.8415052554
 41
5.8333333333
 42
5.8333333333
 43
5.8333333333
 50
180.0
  0
INSERT
  5
2FB
100
AcDbEntity
  8
0
100
AcDbBlockReference
 62
2
  6
CONTINUOUS
  2
_FILLED
 10
427.1097773301
 20
398.8415052554
 41
5.8333333333
 42
5.8333333333
 43
5.8333333333
  0
ENDBLK
  5
2FC
100
AcDbEntity
  8
0
  6
BYBLOCK
 62
0
100
AcDbBlockEnd
  0
BLOCK
  5
2FD
100
AcDbEntity
  8
0
100
AcDbBlockBegin
 62
2
  6
CONTINUOUS
  2
*D8
 70
65
 10
0.0
 20
0.0
  3
*D8
  1

  0
MTEXT
  5
2FE
100
AcDbEntity
  8
0
100
AcDbMText
 62
5
  6
CONTINUOUS
  7
TEXTSTYLE_2
 71
3
 72
1
 10
446.9014439968
 20
299.508171922
 30
0.0
 11
0.0
 21
1.0
 31
0.0
 44
0.9
  1
{\Fgdt;n}\Ftxt;22
 40
4.1666666667
 41
12.1031746032
  0
LINE
  5
2FF
100
AcDbEntity
  8
0
100
AcDbLine
 62
2
  6
CONTINUOUS
 10
427.9431106634
 20
317.8415052554
 11
454.6097773301
 21
317.8415052554
  0
LINE
  5
300
100
AcDbEntity
  8
0
100
AcDbLine
 62
2
  6
CONTINUOUS
 10
427.9431106634
 20
339.8415052554
 11
454.6097773301
 21
339.8415052554
  0
LINE
  5
301
100
AcDbEntity
  8
0
100
AcDbLine
 62
2
  6
CONTINUOUS
 10
452.1097773301
 20
317.8415052554
 11
452.1097773301
 21
328.8415052554
  0
LINE
  5
302
100
AcDbEntity
  8
0
100
AcDbLine
 62
2
  6
CONTINUOUS
 10
452.1097773301
 20
328.8415052554
 11
452.1097773301
 21
287.4049973188
  0
LINE
  5
303
100
AcDbEntity
  8
0
100
AcDbLine
 62
2
  6
CONTINUOUS
 10
452.1097773301
 20
339.8415052554
 11
452.1097773301
 21
328.8415052554
  0
INSERT
  5
304
100
AcDbEntity
  8
0
100
AcDbBlockReference
 62
2
  6
CONTINUOUS
  2
_FILLED
 10
452.1097773301
 20
317.8415052554
 41
5.8333333333
 42
5.8333333333
 43
5.8333333333
 50
270.0
  0
INSERT
  5
305
100
AcDbEntity
  8
0
100
AcDbBlockReference
 62
2
  6
CONTINUOUS
  2
_FILLED
 10
452.1097773301
 20
339.8415052554
 41
5.8333333333
 42
5.8333333333
 43
5.8333333333
 50
90.0
  0
ENDBLK
  5
306
100
AcDbEntity
  8
0
  6
BYBLOCK
 62
0
100
AcDbBlockEnd
  0
BLOCK
  5
307
100
AcDbEntity
  8
0
100
AcDbBlockBegin
 62
2
  6
CONTINUOUS
  2
*D9
 70
65
 10
0.0
 20
0.0
  3
*D9
  1

  0
MTEXT
  5
308
100
AcDbEntity
  8
0
100
AcDbMText
 62
5
  6
CONTINUOUS
  7
STANDARD
 71
1
 72
1
 10
168.424999275
 20
375.9134102025
 30
0.0
 11
0.7071067812
 21
-0.7071067812
 31
0.0
 44
0.9
  1
6.5
 40
4.1666666667
 41
8.630952381
  0
LINE
  5
309
100
AcDbEntity
  8
0
100
AcDbLine
 62
2
  6
CONTINUOUS
 10
137.3130232495
 20
364.1596821629
 11
156.8307944164
 21
383.6774533297
  0
LINE
  5
30A
100
AcDbEntity
  8
0
100
AcDbLine
 62
2
  6
CONTINUOUS
 10
132.86390092
 20
368.9029479888
 11
152.2346003386
 21
388.2736474074
  0
LINE
  5
30B
100
AcDbEntity
  8
0
100
AcDbLine
 62
2
  6
CONTINUOUS
 10
155.0630274634
 20
381.9096863767
 11
170.845156413
 21
366.1275574271
  0
LINE
  5
30C
100
AcDbEntity
  8
0
100
AcDbLine
 62
2
  6
CONTINUOUS
 10
170.845156413
 20
366.1275574271
 11
152.7649304245
 21
384.2077834156
  0
LINE
  5
30D
100
AcDbEntity
  8
0
100
AcDbLine
 62
2
  6
CONTINUOUS
 10
150.4668333857
 20
386.5058804545
 11
143.3957655738
 21
393.5769482663
  0
LINE
  5
30E
100
AcDbEntity
  8
0
100
AcDbLine
 62
2
  6
CONTINUOUS
 10
143.3957655738
 20
393.5769482663
 11
152.7649304245
 21
384.2077834156
  0
INSERT
  5
30F
100
AcDbEntity
  8
0
100
AcDbBlockReference
 62
2
  6
CONTINUOUS
  2
_FILLED
 10
155.0630274634
 20
381.9096863767
 41
5.8333333333
 42
5.8333333333
 43
5.8333333333
 50
135.0
  0
INSERT
  5
310
100
AcDbEntity
  8
0
100
AcDbBlockReference
 62
2
  6
CONTINUOUS
  2
_FILLED
 10
150.4668333857
 20
386.5058804545
 41
5.8333333333
 42
5.8333333333
 43
5.8333333333
 50
315.0
  0
ENDBLK
  5
311
100
AcDbEntity
  8
0
  6
BYBLOCK
 62
0
100
AcDbBlockEnd
  0
BLOCK
  5
312
100
AcDbEntity
  8
ZEICHNUNGSBEMASSUNGEN
100
AcDbBlockBegin
 62
2
  6
CONTINUOUS
  2
*D10
 70
65
 10
0.0
 20
0.0
  3
*D10
  1

  0
MTEXT
  5
313
100
AcDbEntity
  8
ZEICHNUNGSBEMASSUNGEN
100
AcDbMText
 62
5
  6
CONTINUOUS
  7
STANDARD
 71
2
 72
1
 10
406.3597773301
 20
412.383171922
 30
0.0
 11
1.0
 21
0.0
 31
0.0
 44
0.9
  1
41.5
 40
4.1666666667
 41
11.0119047619
  0
LINE
  5
314
100
AcDbEntity
  8
ZEICHNUNGSBEMASSUNGEN
100
AcDbLine
 62
2
  6
CONTINUOUS
 10
427.1097773301
 20
339.008171922
 11
427.1097773301
 21
409.6748385887
  0
LINE
  5
315
100
AcDbEntity
  8
ZEICHNUNGSBEMASSUNGEN
100
AcDbLine
 62
2
  6
CONTINUOUS
 10
385.6097773301
 20
369.6748385887
 11
385.6097773301
 21
409.6748385887
  0
LINE
  5
316
100
AcDbEntity
  8
ZEICHNUNGSBEMASSUNGEN
100
AcDbLine
 62
2
  6
CONTINUOUS
 10
427.1097773301
 20
407.1748385887
 11
406.3597773301
 21
407.1748385887
  0
LINE
  5
317
100
AcDbEntity
  8
ZEICHNUNGSBEMASSUNGEN
100
AcDbLine
 62
2
  6
CONTINUOUS
 10
385.6097773301
 20
407.1748385887
 11
406.3597773301
 21
407.1748385887
  0
INSERT
  5
318
100
AcDbEntity
  8
ZEICHNUNGSBEMASSUNGEN
100
AcDbBlockReference
 62
2
  6
CONTINUOUS
  2
_FILLED
 10
427.1097773301
 20
407.1748385887
 41
5.8333333333
 42
5.8333333333
 43
5.8333333333
  0
INSERT
  5
319
100
AcDbEntity
  8
ZEICHNUNGSBEMASSUNGEN
100
AcDbBlockReference
 62
2
  6
CONTINUOUS
  2
_FILLED
 10
385.6097773301
 20
407.1748385887
 41
5.8333333333
 42
5.8333333333
 43
5.8333333333
 50
180.0
  0
ENDBLK
  5
31A
100
AcDbEntity
  8
0
  6
BYBLOCK
 62
0
100
AcDbBlockEnd
  0
BLOCK
  5
31B
100
AcDbEntity
  8
ZEICHNUNGSBEMASSUNGEN
100
AcDbBlockBegin
 62
2
  6
CONTINUOUS
  2
*D11
 70
65
 10
0.0
 20
0.0
  3
*D11
  1

  0
MTEXT
  5
31C
100
AcDbEntity
  8
ZEICHNUNGSBEMASSUNGEN
100
AcDbMText
 62
5
  6
CONTINUOUS
  7
STANDARD
 71
3
 72
1
 10
368.9981319113
 20
264.0498385887
 30
0.0
 11
1.0
 21
0.0
 31
0.0
 44
0.9
  1
8
 40
4.1666666667
 41
3.2738095238
  0
LINE
  5
31D
100
AcDbEntity
  8
ZEICHNUNGSBEMASSUNGEN
100
AcDbLine
 62
2
  6
CONTINUOUS
 10
377.6097773301
 20
282.1748385887
 11
377.6097773301
 21
256.3415052554
  0
LINE
  5
31E
100
AcDbEntity
  8
ZEICHNUNGSBEMASSUNGEN
100
AcDbLine
 62
2
  6
CONTINUOUS
 10
385.6097773301
 20
282.1748385887
 11
385.6097773301
 21
256.3415052554
  0
LINE
  5
31F
100
AcDbEntity
  8
ZEICHNUNGSBEMASSUNGEN
100
AcDbLine
 62
2
  6
CONTINUOUS
 10
377.6097773301
 20
258.8415052554
 11
365.7243223875
 21
258.8415052554
  0
LINE
  5
320
100
AcDbEntity
  8
ZEICHNUNGSBEMASSUNGEN
100
AcDbLine
 62
2
  6
CONTINUOUS
 10
365.7243223875
 20
258.8415052554
 11
381.6097773301
 21
258.8415052554
  0
LINE
  5
321
100
AcDbEntity
  8
ZEICHNUNGSBEMASSUNGEN
100
AcDbLine
 62
2
  6
CONTINUOUS
 10
385.6097773301
 20
258.8415052554
 11
395.6097773301
 21
258.8415052554
  0
LINE
  5
322
100
AcDbEntity
  8
ZEICHNUNGSBEMASSUNGEN
100
AcDbLine
 62
2
  6
CONTINUOUS
 10
395.6097773301
 20
258.8415052554
 11
381.6097773301
 21
258.8415052554
  0
INSERT
  5
323
100
AcDbEntity
  8
ZEICHNUNGSBEMASSUNGEN
100
AcDbBlockReference
 62
2
  6
CONTINUOUS
  2
_FILLED
 10
377.6097773301
 20
258.8415052554
 41
5.8333333333
 42
5.8333333333
 43
5.8333333333
  0
INSERT
  5
324
100
AcDbEntity
  8
ZEICHNUNGSBEMASSUNGEN
100
AcDbBlockReference
 62
2
  6
CONTINUOUS
  2
_FILLED
 10
385.6097773301
 20
258.8415052554
 41
5.8333333333
 42
5.8333333333
 43
5.8333333333
 50
180.0
  0
ENDBLK
  5
325
100
AcDbEntity
  8
0
  6
BYBLOCK
 62
0
100
AcDbBlockEnd
  0
BLOCK
  5
326
100
AcDbEntity
  8
0
100
AcDbBlockBegin
 62
2
  6
CONTINUOUS
  2
*D12
 70
65
 10
0.0
 20
0.0
  3
*D12
  1

  0
TEXT
  5
327
100
AcDbEntity
  8
0
100
AcDbText
 62
5
  6
CONTINUOUS
 10
156.810695979
 20
307.4664094101
  7
STANDARD
 40
4.1666666667
  1
 
 50
-21.6784097912
 41
0.7857142857
 72
0
100
AcDbText
  0
TEXT
  5
328
100
AcDbEntity
  8
0
100
AcDbText
 62
5
  6
CONTINUOUS
 10
159.8529549581
 20
306.2570752536
  7
TEXTSTYLE_2
 40
4.1666666667
  1
n
 50
-21.6784097912
 41
1.0
 72
0
100
AcDbText
  0
TEXT
  5
329
100
AcDbEntity
  8
0
100
AcDbText
 62
5
  6
CONTINUOUS
 10
165.015576256
 20
304.2048718365
  7
STANDARD
 40
4.1666666667
  1
100
 50
-21.6784097912
 41
0.7142857143
 72
0
100
AcDbText
  0
TEXT
  5
32A
100
AcDbEntity
  8
0
100
AcDbText
 62
5
  6
CONTINUOUS
 10
174.2361377368
 20
303.2298673573
  7
TEXTSTYLE_3
 40
2.5
  1
+0.3
 50
-21.6784097912
 41
0.6964285714
 72
0
100
AcDbText
  0
TEXT
  5
32B
100
AcDbEntity
  8
0
100
AcDbText
 62
5
  6
CONTINUOUS
 10
173.0048156865
 20
300.1322945786
  7
TEXTSTYLE_3
 40
2.5
  1
-0.3
 50
-21.6784097912
 41
0.6964285714
 72
0
100
AcDbText
  0
LINE
  5
32C
100
AcDbEntity
  8
0
100
AcDbLine
 62
2
  6
CONTINUOUS
 10
143.8622439455
 20
310.3716745013
 11
97.3986522643
 21
328.8415052554
  0
LINE
  5
32D
100
AcDbEntity
  8
0
100
AcDbLine
 62
2
  6
CONTINUOUS
 10
97.3986522643
 20
328.8415052554
 11
179.0147844733
 21
296.3981212172
  0
LINE
  5
32E
100
AcDbEntity
  8
0
100
AcDbLine
 62
2
  6
CONTINUOUS
 10
50.9350605831
 20
347.3113360095
 11
97.3986522643
 21
328.8415052554
  0
INSERT
  5
32F
100
AcDbEntity
  8
0
100
AcDbBlockReference
 62
2
  6
CONTINUOUS
  2
_FILLED
 10
143.8622439455
 20
310.3716745013
 41
5.8333333333
 42
5.8333333333
 43
5.8333333333
 50
338.3215902088
  0
INSERT
  5
330
100
AcDbEntity
  8
0
100
AcDbBlockReference
 62
2
  6
CONTINUOUS
  2
_FILLED
 10
50.9350605831
 20
347.3113360095
 41
5.8333333333
 42
5.8333333333
 43
5.8333333333
 50
158.3215902088
  0
ENDBLK
  5
331
100
AcDbEntity
  8
0
  6
BYBLOCK
 62
0
100
AcDbBlockEnd
  0
BLOCK
  5
332
100
AcDbEntity
  8
0
100
AcDbBlockBegin
 62
2
  6
CONTINUOUS
  2
*D13
 70
65
 10
0.0
 20
0.0
  3
*D13
  1

  0
MTEXT
  5
333
100
AcDbEntity
  8
0
100
AcDbMText
 62
5
  6
CONTINUOUS
  7
STANDARD
 71
2
 72
1
 10
275.3597773301
 20
385.7165052554
 30
0.0
 11
1.0
 21
0.0
 31
0.0
 44
0.9
  1
35.5
 40
4.1666666667
 41
11.3095238095
  0
LINE
  5
334
100
AcDbEntity
  8
0
100
AcDbLine
 62
2
  6
CONTINUOUS
 10
293.1097773301
 20
374.6748385887
 11
293.1097773301
 21
383.008171922
  0
LINE
  5
335
100
AcDbEntity
  8
0
100
AcDbLine
 62
2
  6
CONTINUOUS
 10
257.6097773301
 20
374.6748385887
 11
257.6097773301
 21
383.008171922
  0
LINE
  5
336
100
AcDbEntity
  8
0
100
AcDbLine
 62
2
  6
CONTINUOUS
 10
293.1097773301
 20
380.508171922
 11
275.3597773301
 21
380.508171922
  0
LINE
  5
337
100
AcDbEntity
  8
0
100
AcDbLine
 62
2
  6
CONTINUOUS
 10
257.6097773301
 20
380.508171922
 11
275.3597773301
 21
380.508171922
  0
INSERT
  5
338
100
AcDbEntity
  8
0
100
AcDbBlockReference
 62
2
  6
CONTINUOUS
  2
_FILLED
 10
293.1097773301
 20
380.508171922
 41
5.8333333333
 42
5.8333333333
 43
5.8333333333
  0
INSERT
  5
339
100
AcDbEntity
  8
0
100
AcDbBlockReference
 62
2
  6
CONTINUOUS
  2
_FILLED
 10
257.6097773301
 20
380.508171922
 41
5.8333333333
 42
5.8333333333
 43
5.8333333333
 50
180.0
  0
ENDBLK
  5
33A
100
AcDbEntity
  8
0
  6
BYBLOCK
 62
0
100
AcDbBlockEnd
  0
BLOCK
  5
33B
100
AcDbEntity
  8
0
100
AcDbBlockBegin
 62
2
  6
CONTINUOUS
  2
*D14
 70
65
 10
0.0
 20
0.0
  3
*D14
  1

  0
MTEXT
  5
33C
100
AcDbEntity
  8
0
100
AcDbMText
 62
5
  6
CONTINUOUS
  7
TEXTSTYLE_2
 71
2
 72
1
 10
599.8386623186
 20
399.0498385887
 30
0.0
 11
1.0
 21
0.0
 31
0.0
 44
0.9
  1
{\Fgdt;o}\Ftxt;90
 40
4.1666666667
 41
12.2767857143
  0
LINE
  5
33D
100
AcDbEntity
  8
0
100
AcDbLine
 62
2
  6
CONTINUOUS
 10
554.8386623186
 20
366.3372340636
 11
554.8386623186
 21
396.3415052554
  0
LINE
  5
33E
100
AcDbEntity
  8
0
100
AcDbLine
 62
2
  6
CONTINUOUS
 10
644.8386623186
 20
366.293756288
 11
644.8386623186
 21
396.3415052554
  0
LINE
  5
33F
100
AcDbEntity
  8
0
100
AcDbLine
 62
2
  6
CONTINUOUS
 10
554.8386623186
 20
393.8415052554
 11
599.8386623186
 21
393.8415052554
  0
LINE
  5
340
100
AcDbEntity
  8
0
100
AcDbLine
 62
2
  6
CONTINUOUS
 10
644.8386623186
 20
393.8415052554
 11
599.8386623186
 21
393.8415052554
  0
INSERT
  5
341
100
AcDbEntity
  8
0
100
AcDbBlockReference
 62
2
  6
CONTINUOUS
  2
_FILLED
 10
554.8386623186
 20
393.8415052554
 41
5.8333333333
 42
5.8333333333
 43
5.8333333333
 50
180.0
  0
INSERT
  5
342
100
AcDbEntity
  8
0
100
AcDbBlockReference
 62
2
  6
CONTINUOUS
  2
_FILLED
 10
644.8386623186
 20
393.8415052554
 41
5.8333333333
 42
5.8333333333
 43
5.8333333333
  0
ENDBLK
  5
343
100
AcDbEntity
  8
0
  6
BYBLOCK
 62
0
100
AcDbBlockEnd
  0
BLOCK
  5
344
100
AcDbEntity
  8
0
100
AcDbBlockBegin
 62
2
  6
CONTINUOUS
  2
*D15
 70
65
 10
0.0
 20
0.0
  3
*D15
  1

  0
MTEXT
  5
345
100
AcDbEntity
  8
0
100
AcDbMText
 62
5
  6
CONTINUOUS
  7
TEXTSTYLE_2
 71
3
 72
1
 10
546.0323962057
 20
289.5701105953
 30
0.0
 11
0.7591708963
 21
0.6508913505
 31
0.0
 44
0.9
  1
{\Fgdt;n}\Ftxt;115
 40
4.1666666667
 41
13.2936507937
  0
LINE
  5
346
100
AcDbEntity
  8
0
100
AcDbLine
 62
2
  6
CONTINUOUS
 10
556.1863357805
 20
291.4152526002
 11
599.8386623186
 21
328.8415052554
  0
LINE
  5
347
100
AcDbEntity
  8
0
100
AcDbLine
 62
2
  6
CONTINUOUS
 10
599.8386623186
 20
328.8415052554
 11
539.3303025347
 21
276.9633731918
  0
LINE
  5
348
100
AcDbEntity
  8
0
100
AcDbLine
 62
2
  6
CONTINUOUS
 10
643.4909888567
 20
366.2677579106
 11
599.8386623186
 21
328.8415052554
  0
INSERT
  5
349
100
AcDbEntity
  8
0
100
AcDbBlockReference
 62
2
  6
CONTINUOUS
  2
_FILLED
 10
556.1863357805
 20
291.4152526002
 41
5.8333333333
 42
5.8333333333
 43
5.8333333333
 50
220.6088396402
  0
INSERT
  5
34A
100
AcDbEntity
  8
0
100
AcDbBlockReference
 62
2
  6
CONTINUOUS
  2
_FILLED
 10
643.4909888567
 20
366.2677579106
 41
5.8333333333
 42
5.8333333333
 43
5.8333333333
 50
40.6088396402
  0
ENDBLK
  5
34B
100
AcDbEntity
  8
0
  6
BYBLOCK
 62
0
100
AcDbBlockEnd
  0
BLOCK
  5
34C
100
AcDbEntity
  8
0
100
AcDbBlockBegin
 62
2
  6
CONTINUOUS
  2
*D16
 70
65
 10
0.0
 20
0.0
  3
*D16
  1

  0
MTEXT
  5
34D
100
AcDbEntity
  8
0
100
AcDbMText
 62
5
  6
CONTINUOUS
  7
TEXTSTYLE_2
 71
1
 72
1
 10
649.6435709039
 20
268.6773659626
 30
0.0
 11
0.5848863915
 21
-0.8111152255
 31
0.0
 44
0.9
  1
{\Fgdt;n}\Ftxt;100
 40
4.1666666667
 41
14.4841269841
  0
LINE
  5
34E
100
AcDbEntity
  8
0
100
AcDbLine
 62
2
  6
CONTINUOUS
 10
629.0829818916
 20
288.2857439789
 11
599.8386623186
 21
328.8415052554
  0
LINE
  5
34F
100
AcDbEntity
  8
0
100
AcDbLine
 62
2
  6
CONTINUOUS
 10
599.8386623186
 20
328.8415052554
 11
653.8905812028
 21
253.8827867484
  0
LINE
  5
350
100
AcDbEntity
  8
0
100
AcDbLine
 62
2
  6
CONTINUOUS
 10
570.5943427456
 20
369.3972665318
 11
599.8386623186
 21
328.8415052554
  0
INSERT
  5
351
100
AcDbEntity
  8
0
100
AcDbBlockReference
 62
2
  6
CONTINUOUS
  2
_FILLED
 10
629.0829818916
 20
288.2857439789
 41
5.8333333333
 42
5.8333333333
 43
5.8333333333
 50
305.7949644951
  0
INSERT
  5
352
100
AcDbEntity
  8
0
100
AcDbBlockReference
 62
2
  6
CONTINUOUS
  2
_FILLED
 10
570.5943427456
 20
369.3972665318
 41
5.8333333333
 42
5.8333333333
 43
5.8333333333
 50
125.7949644951
  0
ENDBLK
  5
353
100
AcDbEntity
  8
0
  6
BYBLOCK
 62
0
100
AcDbBlockEnd
  0
BLOCK
  5
354
100
AcDbEntity
  8
0
100
AcDbBlockBegin
 62
2
  6
CONTINUOUS
  2
*D17
 70
65
 10
0.0
 20
0.0
  3
*D17
  1

  0
MTEXT
  5
355
100
AcDbEntity
  8
0
100
AcDbMText
 62
5
  6
CONTINUOUS
  7
STANDARD
 71
3
 72
1
 10
598.8298703413
 20
387.383171922
 30
0.0
 11
1.0
 21
0.0
 31
0.0
 44
0.9
  1
M6
 40
4.1666666667
 41
6.8452380952
  0
LINE
  5
356
100
AcDbEntity
  8
0
100
AcDbLine
 62
2
  6
CONTINUOUS
 10
632.1939370888
 20
364.3130857675
 11
632.1827448932
 21
384.6931554829
  0
LINE
  5
357
100
AcDbEntity
  8
0
100
AcDbLine
 62
2
  6
CONTINUOUS
 10
638.1939379433
 20
364.3131772964
 11
638.1827439884
 21
384.6964505238
  0
LINE
  5
358
100
AcDbEntity
  8
0
100
AcDbLine
 62
2
  6
CONTINUOUS
 10
632.1841178269
 20
382.1931558599
 11
591.9846322461
 21
382.1748385887
  0
LINE
  5
359
100
AcDbEntity
  8
0
100
AcDbLine
 62
2
  6
CONTINUOUS
 10
591.9846322461
 20
382.1748385887
 11
635.1841173745
 21
382.1948033803
  0
LINE
  5
35A
100
AcDbEntity
  8
0
100
AcDbLine
 62
2
  6
CONTINUOUS
 10
638.1841169221
 20
382.1964509008
 11
648.1841154142
 21
382.2019426357
  0
LINE
  5
35B
100
AcDbEntity
  8
0
100
AcDbLine
 62
2
  6
CONTINUOUS
 10
648.1841154142
 20
382.2019426357
 11
635.1841173745
 21
382.1948033803
  0
INSERT
  5
35C
100
AcDbEntity
  8
0
100
AcDbBlockReference
 62
2
  6
CONTINUOUS
  2
_FILLED
 10
632.1841178269
 20
382.1931558599
 41
5.8333333333
 42
5.8333333333
 43
5.8333333333
 50
0.0261073554
  0
INSERT
  5
35D
100
AcDbEntity
  8
0
100
AcDbBlockReference
 62
2
  6
CONTINUOUS
  2
_FILLED
 10
638.1841169221
 20
382.1964509008
 41
5.8333333333
 42
5.8333333333
 43
5.8333333333
 50
180.0314653246
  0
ENDBLK
  5
35E
100
AcDbEntity
  8
0
  6
BYBLOCK
 62
0
100
AcDbBlockEnd
  0
BLOCK
  5
35F
100
AcDbEntity
  8
0
100
AcDbBlockBegin
 62
2
  6
CONTINUOUS
  2
*D18
 70
65
 10
0.0
 20
0.0
  3
*D18
  1

  0
MTEXT
  5
360
100
AcDbEntity
  8
0
100
AcDbMText
 62
5
  6
CONTINUOUS
  7
TEXTSTYLE_2
 71
3
 72
1
 10
227.4014439968
 20
311.9171487424
 30
0.0
 11
0.0
 21
1.0
 31
0.0
 44
0.9
  1
{\Fgdt;n}\Ftxt;16
 40
4.1666666667
 41
11.2103174603
  0
LINE
  5
361
100
AcDbEntity
  8
0
100
AcDbLine
 62
2
  6
CONTINUOUS
 10
271.7764439968
 20
320.8415052554
 11
230.1097773301
 21
320.8415052554
  0
LINE
  5
362
100
AcDbEntity
  8
0
100
AcDbLine
 62
2
  6
CONTINUOUS
 10
271.7764439968
 20
336.8415052554
 11
230.1097773301
 21
336.8415052554
  0
LINE
  5
363
100
AcDbEntity
  8
0
100
AcDbLine
 62
2
  6
CONTINUOUS
 10
232.6097773301
 20
320.8415052554
 11
232.6097773301
 21
300.7068312821
  0
LINE
  5
364
100
AcDbEntity
  8
0
100
AcDbLine
 62
2
  6
CONTINUOUS
 10
232.6097773301
 20
300.7068312821
 11
232.6097773301
 21
328.8415052554
  0
LINE
  5
365
100
AcDbEntity
  8
0
100
AcDbLine
 62
2
  6
CONTINUOUS
 10
232.6097773301
 20
336.8415052554
 11
232.6097773301
 21
346.8415052554
  0
LINE
  5
366
100
AcDbEntity
  8
0
100
AcDbLine
 62
2
  6
CONTINUOUS
 10
232.6097773301
 20
346.8415052554
 11
232.6097773301
 21
328.8415052554
  0
INSERT
  5
367
100
AcDbEntity
  8
0
100
AcDbBlockReference
 62
2
  6
CONTINUOUS
  2
_FILLED
 10
232.6097773301
 20
320.8415052554
 41
5.8333333333
 42
5.8333333333
 43
5.8333333333
 50
90.0
  0
INSERT
  5
368
100
AcDbEntity
  8
0
100
AcDbBlockReference
 62
2
  6
CONTINUOUS
  2
_FILLED
 10
232.6097773301
 20
336.8415052554
 41
5.8333333333
 42
5.8333333333
 43
5.8333333333
 50
270.0
  0
ENDBLK
  5
369
100
AcDbEntity
  8
0
  6
BYBLOCK
 62
0
100
AcDbBlockEnd
  0
BLOCK
  5
36A
100
AcDbEntity
  8
0
100
AcDbBlockBegin
 62
2
  6
CONTINUOUS
  2
*D19
 70
65
 10
0.0
 20
0.0
  3
*D19
  1

  0
MTEXT
  5
36B
100
AcDbEntity
  8
0
100
AcDbMText
 62
5
  6
CONTINUOUS
  7
STANDARD
 71
2
 72
1
 10
282.1097773301
 20
412.383171922
 30
0.0
 11
1.0
 21
0.0
 31
0.0
 44
0.9
  1
49
 40
4.1666666667
 41
6.5476190476
  0
LINE
  5
36C
100
AcDbEntity
  8
0
100
AcDbLine
 62
2
  6
CONTINUOUS
 10
257.6097773301
 20
374.6748385887
 11
257.6097773301
 21
409.6748385887
  0
LINE
  5
36D
100
AcDbEntity
  8
0
100
AcDbLine
 62
2
  6
CONTINUOUS
 10
306.6097773301
 20
374.6748385887
 11
306.6097773301
 21
409.6748385887
  0
LINE
  5
36E
100
AcDbEntity
  8
0
100
AcDbLine
 62
2
  6
CONTINUOUS
 10
257.6097773301
 20
407.1748385887
 11
282.1097773301
 21
407.1748385887
  0
LINE
  5
36F
100
AcDbEntity
  8
0
100
AcDbLine
 62
2
  6
CONTINUOUS
 10
306.6097773301
 20
407.1748385887
 11
282.1097773301
 21
407.1748385887
  0
INSERT
  5
370
100
AcDbEntity
  8
0
100
AcDbBlockReference
 62
2
  6
CONTINUOUS
  2
_FILLED
 10
257.6097773301
 20
407.1748385887
 41
5.8333333333
 42
5.8333333333
 43
5.8333333333
 50
180.0
  0
INSERT
  5
371
100
AcDbEntity
  8
0
100
AcDbBlockReference
 62
2
  6
CONTINUOUS
  2
_FILLED
 10
306.6097773301
 20
407.1748385887
 41
5.8333333333
 42
5.8333333333
 43
5.8333333333
  0
ENDBLK
  5
372
100
AcDbEntity
  8
0
  6
BYBLOCK
 62
0
100
AcDbBlockEnd
  0
BLOCK
  5
373
100
AcDbEntity
  8
0
100
AcDbBlockBegin
 62
2
  6
CONTINUOUS
  2
*D20
 70
65
 10
0.0
 20
0.0
  3
*D20
  1

  0
MTEXT
  5
374
100
AcDbEntity
  8
0
100
AcDbMText
 62
5
  6
CONTINUOUS
  7
STANDARD
 71
2
 72
1
 10
277.6097773301
 20
269.0498385887
 30
0.0
 11
1.0
 21
0.0
 31
0.0
 44
0.9
  1
40
 40
4.1666666667
 41
6.5476190476
  0
LINE
  5
375
100
AcDbEntity
  8
0
100
AcDbLine
 62
2
  6
CONTINUOUS
 10
257.6097773301
 20
283.008171922
 11
257.6097773301
 21
261.3415052554
  0
LINE
  5
376
100
AcDbEntity
  8
0
100
AcDbLine
 62
2
  6
CONTINUOUS
 10
297.6097773301
 20
320.2044901263
 11
297.6097773301
 21
261.3415052554
  0
LINE
  5
377
100
AcDbEntity
  8
0
100
AcDbLine
 62
2
  6
CONTINUOUS
 10
257.6097773301
 20
263.8415052554
 11
277.6097773301
 21
263.8415052554
  0
LINE
  5
378
100
AcDbEntity
  8
0
100
AcDbLine
 62
2
  6
CONTINUOUS
 10
297.6097773301
 20
263.8415052554
 11
277.6097773301
 21
263.8415052554
  0
INSERT
  5
379
100
AcDbEntity
  8
0
100
AcDbBlockReference
 62
2
  6
CONTINUOUS
  2
_FILLED
 10
257.6097773301
 20
263.8415052554
 41
5.8333333333
 42
5.8333333333
 43
5.8333333333
 50
180.0
  0
INSERT
  5
37A
100
AcDbEntity
  8
0
100
AcDbBlockReference
 62
2
  6
CONTINUOUS
  2
_FILLED
 10
297.6097773301
 20
263.8415052554
 41
5.8333333333
 42
5.8333333333
 43
5.8333333333
  0
ENDBLK
  5
37B
100
AcDbEntity
  8
0
  6
BYBLOCK
 62
0
100
AcDbBlockEnd
  0
BLOCK
  5
37C
100
AcDbEntity
  8
0
100
AcDbBlockBegin
 62
2
  6
CONTINUOUS
  2
*D21
 70
65
 10
0.0
 20
0.0
  3
*D21
  1

  0
MTEXT
  5
37D
100
AcDbEntity
  8
0
100
AcDbMText
 62
5
  6
CONTINUOUS
  7
STANDARD
 71
3
 72
1
 10
245.1385369425
 20
280.7165052554
 30
0.0
 11
1.0
 21
0.0
 31
0.0
 44
0.9
  1
8
 40
4.1666666667
 41
3.2738095238
  0
LINE
  5
37E
100
AcDbEntity
  8
0
100
AcDbLine
 62
2
  6
CONTINUOUS
 10
257.6097773301
 20
302.8415052554
 11
257.6097773301
 21
273.008171922
  0
LINE
  5
37F
100
AcDbEntity
  8
0
100
AcDbLine
 62
2
  6
CONTINUOUS
 10
265.6097773301
 20
302.8415052554
 11
265.6097773301
 21
273.008171922
  0
LINE
  5
380
100
AcDbEntity
  8
0
100
AcDbLine
 62
2
  6
CONTINUOUS
 10
257.6097773301
 20
275.508171922
 11
241.8647274186
 21
275.508171922
  0
LINE
  5
381
100
AcDbEntity
  8
0
100
AcDbLine
 62
2
  6
CONTINUOUS
 10
241.8647274186
 20
275.508171922
 11
261.6097773301
 21
275.508171922
  0
LINE
  5
382
100
AcDbEntity
  8
0
100
AcDbLine
 62
2
  6
CONTINUOUS
 10
265.6097773301
 20
275.508171922
 11
275.6097773301
 21
275.508171922
  0
LINE
  5
383
100
AcDbEntity
  8
0
100
AcDbLine
 62
2
  6
CONTINUOUS
 10
275.6097773301
 20
275.508171922
 11
261.6097773301
 21
275.508171922
  0
INSERT
  5
384
100
AcDbEntity
  8
0
100
AcDbBlockReference
 62
2
  6
CONTINUOUS
  2
_FILLED
 10
257.6097773301
 20
275.508171922
 41
5.8333333333
 42
5.8333333333
 43
5.8333333333
  0
INSERT
  5
385
100
AcDbEntity
  8
0
100
AcDbBlockReference
 62
2
  6
CONTINUOUS
  2
_FILLED
 10
265.6097773301
 20
275.508171922
 41
5.8333333333
 42
5.8333333333
 43
5.8333333333
 50
180.0
  0
ENDBLK
  5
386
100
AcDbEntity
  8
0
  6
BYBLOCK
 62
0
100
AcDbBlockEnd
  0
BLOCK
  5
387
100
AcDbEntity
  8
0
100
AcDbBlockBegin
 62
2
  6
CONTINUOUS
  2
*D22
 70
65
 10
0.0
 20
0.0
  3
*D22
  1

  0
MTEXT
  5
388
100
AcDbEntity
  8
0
100
AcDbMText
 62
5
  6
CONTINUOUS
  7
TEXTSTYLE_2
 71
2
 72
1
 10
210.7347773301
 20
328.8415052554
 30
0.0
 11
0.0
 21
1.0
 31
0.0
 44
0.9
  1
{\Fgdt;n}\Ftxt;80
 40
4.1666666667
 41
12.1031746032
  0
LINE
  5
389
100
AcDbEntity
  8
0
100
AcDbLine
 62
2
  6
CONTINUOUS
 10
255.1097773301
 20
368.8415052554
 11
213.4431106634
 21
368.8415052554
  0
LINE
  5
38A
100
AcDbEntity
  8
0
100
AcDbLine
 62
2
  6
CONTINUOUS
 10
255.1097773301
 20
288.8415052554
 11
213.4431106634
 21
288.8415052554
  0
LINE
  5
38B
100
AcDbEntity
  8
0
100
AcDbLine
 62
2
  6
CONTINUOUS
 10
215.9431106634
 20
368.8415052554
 11
215.9431106634
 21
328.8415052554
  0
LINE
  5
38C
100
AcDbEntity
  8
0
100
AcDbLine
 62
2
  6
CONTINUOUS
 10
215.9431106634
 20
288.8415052554
 11
215.9431106634
 21
328.8415052554
  0
INSERT
  5
38D
100
AcDbEntity
  8
0
100
AcDbBlockReference
 62
2
  6
CONTINUOUS
  2
_FILLED
 10
215.9431106634
 20
368.8415052554
 41
5.8333333333
 42
5.8333333333
 43
5.8333333333
 50
90.0
  0
INSERT
  5
38E
100
AcDbEntity
  8
0
100
AcDbBlockReference
 62
2
  6
CONTINUOUS
  2
_FILLED
 10
215.9431106634
 20
288.8415052554
 41
5.8333333333
 42
5.8333333333
 43
5.8333333333
 50
270.0
  0
ENDBLK
  5
38F
100
AcDbEntity
  8
0
  6
BYBLOCK
 62
0
100
AcDbBlockEnd
  0
ENDSEC
  0
SECTION
  2
ENTITIES
  0
DIMENSION
  5
390
100
AcDbEntity
  8
ZEICHNUNGSBEMASSUNGEN
100
AcDbDimension
 62
2
  6
CONTINUOUS
  2
*D0
 10
257.6097773301
 20
423.8415052554
 11
327.1753736967
 21
426.9665052554
 70
160
 71
2
 42
169.5
  3
DIMSTYLE_1
100
AcDbAlignedDimension
 13
427.1097773301
 23
339.008171922
 14
257.6097773301
 24
329.6647489678
 50
180.0
100
AcDbRotatedDimension
  0
DIMENSION
  5
391
100
AcDbEntity
  8
ZEICHNUNGSBEMASSUNGEN
100
AcDbDimension
 62
2
  6
CONTINUOUS
  2
*D1
 10
306.6097773301
 20
407.1748385887
 11
342.8359678063
 21
410.2998385887
 70
160
 71
2
 42
79.0
  3
DIMSTYLE_2
100
AcDbAlignedDimension
 13
385.6097773301
 23
369.6748385887
 14
306.6097773301
 24
330.3208465288
 50
180.0
100
AcDbRotatedDimension
  0
DIMENSION
  5
392
100
AcDbEntity
  8
0
100
AcDbDimension
 62
2
  6
CONTINUOUS
  2
*D2
 10
142.3986522643
 20
403.8415052554
 11
94.3294558357
 21
406.9665052554
 70
160
 71
2
 42
90.0
  1
{\Fgdt;o}<>
  3
DIMSTYLE_3
100
AcDbAlignedDimension
 13
52.3986522643
 23
367.0444031524
 14
142.3986522643
 24
367.0444031524
100
AcDbRotatedDimension
  0
DIMENSION
  5
393
100
AcDbEntity
  8
0
100
AcDbDimension
 62
2
  6
CONTINUOUS
  2
*D3
 10
138.4986182354
 20
287.9172728597
 11
152.7497627984
 21
278.1370420857
 70
163
 71
1
 42
116.0
  1
<>
  3
DIMSTYLE_4
100
AcDbDiametricDimension
 15
56.2986862932
 25
369.765737651
  0
DIMENSION
  5
394
100
AcDbEntity
  8
0
100
AcDbDimension
 62
2
  6
CONTINUOUS
  2
*D4
 10
385.6097773301
 20
390.508171922
 11
373.5191930792
 21
393.633171922
 70
160
 71
3
 42
3.0
  3
DIMSTYLE_5
100
AcDbAlignedDimension
 13
388.6097773301
 23
369.6748385887
 14
385.6097773301
 24
369.6748385887
 50
180.0
100
AcDbRotatedDimension
  0
DIMENSION
  5
395
100
AcDbEntity
  8
0
100
AcDbDimension
 62
2
  6
CONTINUOUS
  2
*D5
 10
485.4431106634
 20
368.8415052554
 11
483.6738889662
 21
323.4768889966
 70
160
 71
2
 42
80.0
  1
%%c<>
  3
DIMSTYLE_6
100
AcDbAlignedDimension
 13
386.4431106634
 23
288.8415052554
 14
386.4431106634
 24
368.8415052554
 50
90.0
100
AcDbRotatedDimension
  0
LEADER
  5
396
100
AcDbEntity
  8
0
100
AcDbLeader
 62
2
  6
CONTINUOUS
  3
STANDARD
 71
1
 72
0
 73
2
 75
0
 76
3
 10
485.4431106634
 20
288.8415052554
 30
0.0
 10
485.4431106634
 20
258.8415052554
 30
0.0
 10
481.3662331436
 20
258.8415052554
 30
0.0
340
397
1001
ACAD
1000
DSTYLE
1002
{
1070
77
1070
0
1002
}
  0
INSERT
  5
397
102
{ACAD_REACTORS
330
396
102
}
100
AcDbEntity
  8
0
100
AcDbBlockReference
 62
2
  6
CONTINUOUS
  2
SYMBOL_64_BL0
 10
457.1995664769
 20
258.4101873256
  0
INSERT
  5
398
100
AcDbEntity
  8
0
100
AcDbBlockReference
 62
2
  6
CONTINUOUS
  2
SYMBOL_38_BL1
 10
485.4431106634
 20
379.258171922
  0
DIMENSION
  5
399
100
AcDbEntity
  8
0
100
AcDbDimension
 62
2
  6
CONTINUOUS
  2
*D6
 10
468.7451009627
 20
308.7108367458
 11
465.3008001052
 21
326.5397891647
 70
160
 71
2
 42
40.0
  1
%%c<>
  3
DIMSTYLE_7
100
AcDbAlignedDimension
 13
391.9431106634
 23
348.8360976114
 14
391.9431106634
 24
308.8360444561
 50
269.906592694
100
AcDbRotatedDimension
  0
DIMENSION
  5
39A
100
AcDbEntity
  8
0
100
AcDbDimension
 62
2
  6
CONTINUOUS
  2
*D7
 10
427.1097773301
 20
398.8415052554
 11
405.9847773301
 21
401.9665052554
 70
160
 71
2
 42
36.0
  3
DIMSTYLE_2
100
AcDbAlignedDimension
 13
391.1097773301
 23
349.6748385887
 14
427.1097773301
 24
339.008171922
100
AcDbRotatedDimension
  0
DIMENSION
  5
39B
100
AcDbEntity
  8
0
100
AcDbDimension
 62
2
  6
CONTINUOUS
  2
*D8
 10
452.1097773301
 20
339.8415052554
 11
451.6963339356
 21
288.0464857633
 70
160
 71
3
 42
22.0
  1
%%c<>
  3
DIMSTYLE_8
100
AcDbAlignedDimension
 13
427.9431106634
 23
317.8415052554
 14
427.9431106634
 24
339.8415052554
 50
90.0
100
AcDbRotatedDimension
  0
LEADER
  5
39C
100
AcDbEntity
  8
0
100
AcDbLeader
 62
2
  6
CONTINUOUS
  3
STANDARD
 71
1
 72
0
 73
2
 75
0
 76
3
 10
448.2047341349
 20
339.8415052554
 30
0.0
 10
448.2758015568
 20
407.1748385887
 30
0.0
 10
452.5670155379
 20
407.1748385887
 30
0.0
340
39D
1001
ACAD
1000
DSTYLE
1002
{
1070
77
1070
0
1002
}
  0
INSERT
  5
39D
102
{ACAD_REACTORS
330
39C
102
}
100
AcDbEntity
  8
0
100
AcDbBlockReference
 62
2
  6
CONTINUOUS
  2
SYMBOL_47_BL2
 10
479.2336753813
 20
406.9338413616
  0
DIMENSION
  5
39E
100
AcDbEntity
  8
0
100
AcDbDimension
 62
2
  6
CONTINUOUS
  2
*D9
 10
150.4668333857
 20
386.5058804545
 11
170.0033626259
 21
371.3887685967
 70
160
 71
1
 42
6.5
  3
DIMSTYLE_9
100
AcDbAlignedDimension
 13
137.3130232495
 23
364.1596821629
 14
132.86390092
 24
368.9029479888
 50
135.0
100
AcDbRotatedDimension
  0
DIMENSION
  5
39F
100
AcDbEntity
  8
ZEICHNUNGSBEMASSUNGEN
100
AcDbDimension
 62
2
  6
CONTINUOUS
  2
*D10
 10
385.6097773301
 20
407.1748385887
 11
400.8538249491
 21
410.2998385887
 70
160
 71
2
 42
41.5
  3
DIMSTYLE_2
100
AcDbAlignedDimension
 13
427.1097773301
 23
339.008171922
 14
385.6097773301
 24
369.6748385887
 50
180.0
100
AcDbRotatedDimension
  0
DIMENSION
  5
3A0
100
AcDbEntity
  8
ZEICHNUNGSBEMASSUNGEN
100
AcDbDimension
 62
2
  6
CONTINUOUS
  2
*D11
 10
385.6097773301
 20
258.8415052554
 11
364.0874176256
 21
261.9665052554
 70
160
 71
3
 42
8.0
  3
DIMSTYLE_10
100
AcDbAlignedDimension
 13
377.6097773301
 23
282.1748385887
 14
385.6097773301
 24
282.1748385887
100
AcDbRotatedDimension
  0
INSERT
  5
3A1
100
AcDbEntity
  8
0
100
AcDbBlockReference
 62
2
  6
CONTINUOUS
  2
SYMBOL_70_BL3
 10
396.0264439968
 20
268.8937519424
  0
DIMENSION
  5
3A2
100
AcDbEntity
  8
0
100
AcDbDimension
 62
2
  6
CONTINUOUS
  2
*D12
 10
143.8622439455
 20
310.3716745013
 11
170.7421493941
 21
303.8443761181
 70
163
 71
1
 42
100.0
  1
 <>
  3
DIMSTYLE_11
100
AcDbDiametricDimension
 15
50.9350605831
 25
347.3113360095
  0
DIMENSION
  5
3A3
100
AcDbEntity
  8
0
100
AcDbDimension
 62
2
  6
CONTINUOUS
  2
*D13
 10
257.6097773301
 20
380.508171922
 11
269.7050154253
 21
383.633171922
 70
160
 71
2
 42
35.5
  3
DIMSTYLE_2
100
AcDbAlignedDimension
 13
293.1097773301
 23
374.6748385887
 14
257.6097773301
 24
374.6748385887
 50
180.0
100
AcDbRotatedDimension
  0
DIMENSION
  5
3A4
100
AcDbEntity
  8
0
100
AcDbDimension
 62
2
  6
CONTINUOUS
  2
*D14
 10
644.8386623186
 20
393.8415052554
 11
596.7694658901
 21
396.9665052554
 70
160
 71
2
 42
90.0
  1
{\Fgdt;o}<>
  3
DIMSTYLE_2
100
AcDbAlignedDimension
 13
554.8386623186
 23
366.3372340636
 14
644.8386623186
 24
366.293756288
100
AcDbRotatedDimension
  0
DIMENSION
  5
3A5
100
AcDbEntity
  8
0
100
AcDbDimension
 62
2
  6
CONTINUOUS
  2
*D15
 10
556.1863357805
 20
291.4152526002
 11
548.8112968621
 21
282.1347502903
 70
163
 71
3
 42
115.0
  1
<>
  3
DIMSTYLE_12
100
AcDbDiametricDimension
 15
643.4909888567
 25
366.2677579106
  0
DIMENSION
  5
3A6
100
AcDbEntity
  8
0
100
AcDbDimension
 62
2
  6
CONTINUOUS
  2
*D16
 10
629.0829818916
 20
288.2857439789
 11
652.1895319
 21
261.5847046844
 70
163
 71
1
 42
100.0
  1
<>
  3
DIMSTYLE_12
100
AcDbDiametricDimension
 15
570.5943427456
 25
369.3972665318
  0
DIMENSION
  5
3A7
100
AcDbEntity
  8
0
100
AcDbDimension
 62
2
  6
CONTINUOUS
  2
*D17
 10
638.1841169221
 20
382.1964509008
 11
591.9846322461
 21
385.2998385887
 70
160
 71
3
 42
6.0
  1
M<>
  3
DIMSTYLE_5
100
AcDbAlignedDimension
 13
632.1939370888
 23
364.3130857675
 14
638.1939379433
 24
364.3131772964
 50
0.0314653246
100
AcDbRotatedDimension
  0
DIMENSION
  5
3A8
100
AcDbEntity
  8
0
100
AcDbDimension
 62
2
  6
CONTINUOUS
  2
*D18
 10
232.6097773301
 20
336.8415052554
 11
231.9963010713
 21
301.3009968085
 70
160
 71
3
 42
16.0
  1
%%c<>
  3
DIMSTYLE_10
100
AcDbAlignedDimension
 13
271.7764439968
 23
320.8415052554
 14
271.7764439968
 24
336.8415052554
 50
90.0
100
AcDbRotatedDimension
  0
DIMENSION
  5
3A9
100
AcDbEntity
  8
0
100
AcDbDimension
 62
2
  6
CONTINUOUS
  2
*D19
 10
306.6097773301
 20
407.1748385887
 11
278.8359678063
 21
410.2998385887
 70
160
 71
2
 42
49.0
  3
DIMSTYLE_2
100
AcDbAlignedDimension
 13
257.6097773301
 23
374.6748385887
 14
306.6097773301
 24
374.6748385887
100
AcDbRotatedDimension
  0
DIMENSION
  5
3AA
100
AcDbEntity
  8
0
100
AcDbDimension
 62
2
  6
CONTINUOUS
  2
*D20
 10
297.6097773301
 20
263.8415052554
 11
274.3359678063
 21
266.9665052554
 70
160
 71
2
 42
40.0
  3
DIMSTYLE_2
100
AcDbAlignedDimension
 13
257.6097773301
 23
283.008171922
 14
297.6097773301
 24
320.2044901263
100
AcDbRotatedDimension
  0
DIMENSION
  5
3AB
100
AcDbEntity
  8
0
100
AcDbDimension
 62
2
  6
CONTINUOUS
  2
*D21
 10
265.6097773301
 20
275.508171922
 11
240.2278226567
 21
278.633171922
 70
160
 71
3
 42
8.0
  3
DIMSTYLE_10
100
AcDbAlignedDimension
 13
257.6097773301
 23
302.8415052554
 14
265.6097773301
 24
302.8415052554
100
AcDbRotatedDimension
  0
DIMENSION
  5
3AC
100
AcDbEntity
  8
0
100
AcDbDimension
 62
2
  6
CONTINUOUS
  2
*D22
 10
215.9431106634
 20
288.8415052554
 11
214.1738889662
 21
326.1364558268
 70
160
 71
2
 42
80.0
  1
%%c<>
  3
DIMSTYLE_2
100
AcDbAlignedDimension
 13
255.1097773301
 23
368.8415052554
 14
255.1097773301
 24
288.8415052554
 50
270.0
100
AcDbRotatedDimension
  0
LEADER
  5
3AD
100
AcDbEntity
  8
0
100
AcDbLeader
 62
2
  6
CONTINUOUS
  3
STANDARD
 71
1
 72
0
 73
0
 75
0
 40
4.1666666667
 41
17.8571428571
 76
3
 10
391.1097677249
 20
317.8415052554
 30
0.0
 10
432.7764439968
 20
272.1748385887
 30
0.0
 10
441.1097773301
 20
272.1748385887
 30
0.0
340
3AE
1001
ACAD
1000
DSTYLE
1002
{
1070
77
1070
0
1002
}
  0
MTEXT
  5
3AE
102
{ACAD_REACTORS
330
3AD
102
}
100
AcDbEntity
  8
0
100
AcDbMText
 62
5
  6
CONTINUOUS
  7
STANDARD
 71
1
 72
1
 10
441.1097773301
 20
274.258171922
 30
0.0
 11
1.0
 21
0.0
 31
0.0
 44
0.9
  1
max.R1
 40
4.1666666667
 41
17.8571428571
  0
MTEXT
  5
3AF
100
AcDbEntity
  8
0
100
AcDbMText
 62
5
  6
CONTINUOUS
  7
STANDARD
 71
1
 72
1
 10
446.8772127344
 20
302.1026237048
 30
0.0
 11
0.0
 21
1.0
 31
0.0
 44
0.9
  1
k6
 40
4.1666666667
 41
6.25
  0
MTEXT
  5
3B0
100
AcDbEntity
  8
0
100
AcDbMText
 62
5
  6
CONTINUOUS
  7
STANDARD
 71
1
 72
1
 10
479.7132463374
 20
337.679186999
 30
0.0
 11
0.0
 21
1.0
 31
0.0
 44
0.9
  1
h7
 40
4.1666666667
 41
6.25
  0
MTEXT
  5
3B1
100
AcDbEntity
  8
0
100
AcDbMText
 62
5
  6
CONTINUOUS
  7
STANDARD
 71
1
 72
1
 10
470.6799812199
 20
408.8815513331
 30
0.0
 11
1.0
 21
0.0
 31
0.0
 44
0.9
  1
0,03
 40
4.1666666667
 41
11.9047619048
  0
MTEXT
  5
3B2
100
AcDbEntity
  8
0
100
AcDbMText
 62
5
  6
CONTINUOUS
  7
STANDARD
 71
1
 72
1
 10
453.0088054094
 20
260.4029689748
 30
0.0
 11
1.0
 21
0.0
 31
0.0
 44
0.9
  1
0,02
 40
4.1666666667
 41
12.2023809524
  0
MTEXT
  5
3B3
100
AcDbEntity
  8
0
100
AcDbMText
 62
5
  6
CONTINUOUS
  7
STANDARD
 71
1
 72
1
 10
491.6732778328
 20
408.9479664977
 30
0.0
 11
1.0
 21
0.0
 31
0.0
 44
0.9
  1
A
 40
4.1666666667
 41
4.3650793651
  0
MTEXT
  5
3B4
100
AcDbEntity
  8
0
100
AcDbMText
 62
5
  6
CONTINUOUS
  7
STANDARD
 71
1
 72
1
 10
500.0990219383
 20
409.0166522975
 30
0.0
 11
1.0
 21
0.0
 31
0.0
 44
0.9
  1
B
 40
4.1666666667
 41
4.0674603175
  0
MTEXT
  5
3B5
100
AcDbEntity
  8
0
100
AcDbMText
 62
5
  6
CONTINUOUS
  7
STANDARD
 71
1
 72
1
 10
473.3962577315
 20
260.5748801423
 30
0.0
 11
1.0
 21
0.0
 31
0.0
 44
0.9
  1
A
 40
4.1666666667
 41
4.3650793651
  0
MTEXT
  5
3B6
100
AcDbEntity
  8
0
100
AcDbMText
 62
5
  6
CONTINUOUS
  7
STANDARD
 71
1
 72
1
 10
483.6560882184
 20
385.8787376125
 30
0.0
 11
1.0
 21
0.0
 31
0.0
 44
0.9
  1
B
 40
4.1666666667
 41
4.0674603175
  0
MTEXT
  5
3B7
100
AcDbEntity
  8
0
100
AcDbMText
 62
5
  6
CONTINUOUS
  7
STANDARD
 71
1
 72
1
 10
398.5993533638
 20
270.7980383023
 30
0.0
 11
1.0
 21
0.0
 31
0.0
 44
0.9
  1
A
 40
4.1666666667
 41
4.3650793651
  0
MTEXT
  5
3B8
100
AcDbEntity
  8
0
100
AcDbMText
 62
5
  6
CONTINUOUS
  7
STANDARD
 71
1
 72
1
 10
226.1466903589
 20
338.8664579739
 30
0.0
 11
0.0
 21
1.0
 31
0.0
 44
0.9
  1
(for shaft diam. tol. j6/k6)
 40
4.1666666667
 41
77.380952381
  0
MTEXT
  5
3B9
100
AcDbEntity
  8
0
100
AcDbMText
 62
5
  6
CONTINUOUS
  7
STANDARD
 71
1
 72
1
 10
149.2645056323
 20
313.8343814492
 30
0.0
 11
0.9426414911
 21
-0.3338068592
 31
0.0
 44
0.9
  1
pcd.
 40
4.1666666667
 41
11.0119047619
  0
MTEXT
  5
3BA
100
AcDbEntity
  8
0
100
AcDbMText
 62
5
  6
CONTINUOUS
  7
TEXTSTYLE_2
 71
1
 72
1
 10
163.4306862466
 20
380.8164563726
 30
0.0
 11
0.7071067812
 21
-0.7071067812
 31
0.0
 44
0.9
  1
{\Fgdt;n}
 40
4.1666666667
 41
6.25
  0
MTEXT
  5
3BB
100
AcDbEntity
  8
0
100
AcDbMText
 62
5
  6
CONTINUOUS
  7
STANDARD
 71
1
 72
1
 10
643.6324623576
 20
277.128481296
 30
0.0
 11
0.5877852523
 21
-0.8090169944
 31
0.0
 44
0.9
  1
pcd.
 40
4.1666666667
 41
11.0119047619
  0
MTEXT
  5
3BC
100
AcDbEntity
  8
0
100
AcDbMText
 62
5
  6
CONTINUOUS
  7
STANDARD
 71
1
 72
1
 10
601.2609423395
 20
387.3558943547
 30
0.0
 11
1.0
 21
0.0
 31
0.0
 44
0.9
  1
x12 deep
 40
4.1666666667
 41
23.8095238095
  0
LINE
  5
3BD
100
AcDbEntity
  8
0
100
AcDbLine
 62
2
  6
CONTINUOUS
 10
7.9886872457
 20
486.7450659148
 11
7.9886872457
 21
8.3919031154
  0
LINE
  5
3BE
100
AcDbEntity
  8
0
100
AcDbLine
 62
2
  6
CONTINUOUS
 10
7.9886872457
 20
8.3919031154
 11
691.851346673
 21
8.3919031154
  0
LINE
  5
3BF
100
AcDbEntity
  8
0
100
AcDbLine
 62
2
  6
CONTINUOUS
 10
691.851346673
 20
486.7450659148
 11
7.9886872457
 21
486.7450659148
  0
LINE
  5
3C0
100
AcDbEntity
  8
0
100
AcDbLine
 62
2
  6
CONTINUOUS
 10
691.851346673
 20
8.3919031154
 11
691.851346673
 21
486.7450659148
  0
LINE
  5
3C1
100
AcDbEntity
  8
0
100
AcDbLine
 62
7
  6
CONTINUOUS
 10
257.6097773301
 20
373.8415052554
 11
257.6097773301
 21
283.8415052554
  0
LINE
  5
3C2
100
AcDbEntity
  8
AUSBLENDEN
100
AcDbLine
 62
2
  6
CENTER
 10
265.6097773301
 20
368.8415052554
 11
265.6097773301
 21
288.8415052554
  0
LINE
  5
3C3
100
AcDbEntity
  8
0
100
AcDbLine
 62
7
  6
CONTINUOUS
 10
275.9920858765
 20
316.6415052554
 11
275.9920858765
 21
313.0415052554
  0
LINE
  5
3C4
100
AcDbEntity
  8
BEZUGSACHSEN
100
AcDbLine
 62
2
  6
CENTER
 10
279.1097773301
 20
314.8415052554
 11
279.1097773301
 21
304.5915052554
  0
LINE
  5
3C5
100
AcDbEntity
  8
BEZUGSACHSEN
100
AcDbLine
 62
2
  6
CENTER
 10
279.1097773301
 20
314.8415052554
 11
279.1097773301
 21
320.6748540726
  0
LINE
  5
3C6
100
AcDbEntity
  8
BEZUGSACHSEN
100
AcDbLine
 62
2
  6
CENTER
 10
279.1097773301
 20
320.6748540726
 11
279.1097773301
 21
325.0915052554
  0
LINE
  5
3C7
100
AcDbEntity
  8
0
100
AcDbLine
 62
7
  6
CONTINUOUS
 10
282.2274687837
 20
313.0415052554
 11
282.2274687837
 21
316.6415052554
  0
LINE
  5
3C8
100
AcDbEntity
  8
0
100
AcDbLine
 62
7
  6
CONTINUOUS
 10
285.1097773301
 20
373.8415052554
 11
285.1097773301
 21
364.6360579135
  0
LINE
  5
3C9
100
AcDbEntity
  8
0
100
AcDbLine
 62
7
  6
CONTINUOUS
 10
285.1097773301
 20
293.0469525972
 11
285.1097773301
 21
283.8415052554
  0
LINE
  5
3CA
100
AcDbEntity
  8
0
100
AcDbLine
 62
7
  6
CONTINUOUS
 10
293.1097773301
 20
373.8415052554
 11
293.1097773301
 21
283.8415052554
  0
LINE
  5
3CB
100
AcDbEntity
  8
0
100
AcDbLine
 62
7
  6
CONTINUOUS
 10
275.9920858765
 20
313.0415052554
 11
279.1097773301
 21
311.2415052554
  0
LINE
  5
3CC
100
AcDbEntity
  8
ANSICHT_3D
100
AcDbLine
 62
2
  6
CENTER
 10
297.6097773301
 20
320.8767390943
 11
297.5097773301
 21
336.8415052554
  0
LINE
  5
3CD
100
AcDbEntity
  8
FASEN
100
AcDbLine
 62
7
  6
CONTINUOUS
 10
388.6097759581
 20
288.8721419994
 11
388.2597756139
 21
288.8415209492
  0
LINE
  5
3CE
100
AcDbEntity
  8
0
100
AcDbLine
 62
7
  6
CONTINUOUS
 10
385.6097773301
 20
283.8415052554
 11
377.6097773301
 21
283.8415052554
  0
LINE
  5
3CF
100
AcDbEntity
  8
0
100
AcDbLine
 62
7
  6
CONTINUOUS
 10
257.6097773301
 20
283.8415052554
 11
306.6097773301
 21
283.8415052554
  0
LINE
  5
3D0
100
AcDbEntity
  8
0
100
AcDbLine
 62
7
  6
CONTINUOUS
 10
306.6097773301
 20
283.8915052554
 11
324.3597773301
 21
283.8915052554
  0
LINE
  5
3D1
100
AcDbEntity
  8
AUSBLENDEN
100
AcDbLine
 62
2
  6
CENTER
 10
265.6097773301
 20
288.8415052554
 11
257.6097773301
 21
288.8415052554
  0
LINE
  5
3D2
100
AcDbEntity
  8
0
100
AcDbLine
 62
7
  6
CONTINUOUS
 10
361.8059297528
 20
288.8415052554
 11
374.6097773301
 21
288.8415052554
  0
LINE
  5
3D3
100
AcDbEntity
  8
0
100
AcDbLine
 62
7
  6
CONTINUOUS
 10
385.6097773301
 20
288.8415052554
 11
388.2597769869
 21
288.8415052554
  0
LINE
  5
3D4
100
AcDbEntity
  8
0
100
AcDbLine
 62
7
  6
CONTINUOUS
 10
328.3597773301
 20
290.2765052554
 11
339.3099751686
 21
290.2765052554
  0
LINE
  5
3D5
100
AcDbEntity
  8
0
100
AcDbLine
 62
7
  6
CONTINUOUS
 10
282.2274687837
 20
316.6415052554
 11
279.1097773301
 21
318.4415052554
  0
LINE
  5
3D6
100
AcDbEntity
  8
0
100
AcDbLine
 62
7
  6
CONTINUOUS
 10
306.6097773301
 20
283.8415052554
 11
306.6097773301
 21
373.8415052554
  0
LINE
  5
3D7
100
AcDbEntity
  8
0
100
AcDbLine
 62
7
  6
CONTINUOUS
 10
343.6097773301
 20
291.8415052554
 11
356.6097773301
 21
291.8415052554
  0
LINE
  5
3D8
100
AcDbEntity
  8
0
100
AcDbLine
 62
7
  6
CONTINUOUS
 10
385.6097773301
 20
292.2491563283
 11
377.6097773301
 21
292.2491563283
  0
LINE
  5
3D9
100
AcDbEntity
  8
0
100
AcDbLine
 62
7
  6
CONTINUOUS
 10
285.1097773301
 20
293.0469525972
 11
257.6097773301
 21
293.0469525972
  0
LINE
  5
3DA
100
AcDbEntity
  8
0
100
AcDbLine
 62
7
  6
CONTINUOUS
 10
356.6097773301
 20
365.8415052554
 11
361.8059297528
 21
368.8415052554
  0
LINE
  5
3DB
100
AcDbEntity
  8
0
100
AcDbLine
 62
7
  6
CONTINUOUS
 10
279.1097773301
 20
318.4415052554
 11
275.9920858765
 21
316.6415052554
  0
LINE
  5
3DC
100
AcDbEntity
  8
0
100
AcDbLine
 62
7
  6
CONTINUOUS
 10
388.6097773301
 20
308.8415052554
 11
391.1097773301
 21
308.8415052554
  0
LINE
  5
3DD
100
AcDbEntity
  8
0
100
AcDbLine
 62
7
  6
CONTINUOUS
 10
356.6097773301
 20
291.8415052554
 11
361.8059297528
 21
288.8415052554
  0
LINE
  5
3DE
100
AcDbEntity
  8
0
100
AcDbLine
 62
7
  6
CONTINUOUS
 10
324.3597773301
 20
283.891871401
 11
324.3597773301
 21
373.7911391097
  0
LINE
  5
3DF
100
AcDbEntity
  8
0
100
AcDbLine
 62
9
  6
CONTINUOUS
 10
328.3597773301
 20
290.2765052554
 11
328.3597773301
 21
367.4065052554
  0
LINE
  5
3E0
100
AcDbEntity
  8
0
100
AcDbLine
 62
7
  6
CONTINUOUS
 10
279.1097773301
 20
311.2415052554
 11
282.2274687837
 21
313.0415052554
  0
LINE
  5
3E1
100
AcDbEntity
  8
BEZUGSACHSEN
100
AcDbLine
 62
2
  6
CENTER
 10
279.1097773301
 20
314.8415052554
 11
273.9403101005
 21
314.8415052554
  0
LINE
  5
3E2
100
AcDbEntity
  8
BEZUGSACHSEN
100
AcDbLine
 62
2
  6
CENTER
 10
273.9403101005
 20
314.8415052554
 11
268.8597773301
 21
314.8415052554
  0
LINE
  5
3E3
100
AcDbEntity
  8
BEZUGSACHSEN
100
AcDbLine
 62
2
  6
CENTER
 10
279.1097773301
 20
314.8415052554
 11
289.3597773301
 21
314.8415052554
  0
LINE
  5
3E4
100
AcDbEntity
  8
0
100
AcDbLine
 62
7
  6
CONTINUOUS
 10
391.1097773301
 20
317.8415052554
 11
427.1097773301
 21
317.8415052554
  0
LINE
  5
3E5
100
AcDbEntity
  8
ANSICHT_3D
100
AcDbLine
 62
2
  6
CENTER
 10
272.6097773301
 20
320.8767390943
 11
297.6097773301
 21
320.8767390943
  0
LINE
  5
3E6
100
AcDbEntity
  8
0
100
AcDbLine
 62
7
  6
CONTINUOUS
 10
339.3099751686
 20
290.2765052554
 11
339.3099751686
 21
367.4065052554
  0
LINE
  5
3E7
100
AcDbEntity
  8
TEIL_STARTBEZUEGE
100
AcDbLine
 62
2
  6
CENTER
 10
430.4431106634
 20
328.8415052554
 11
254.2764439968
 21
328.8415052554
  0
LINE
  5
3E8
100
AcDbEntity
  8
0
100
AcDbLine
 62
7
  6
CONTINUOUS
 10
343.6097773301
 20
291.8415052554
 11
343.6097773301
 21
365.8415052554
  0
LINE
  5
3E9
100
AcDbEntity
  8
ANSICHT_3D
100
AcDbLine
 62
2
  6
CENTER
 10
297.5097773301
 20
336.8415052554
 11
272.6097773301
 21
336.8415052554
  0
LINE
  5
3EA
100
AcDbEntity
  8
0
100
AcDbLine
 62
7
  6
CONTINUOUS
 10
391.1097773301
 20
339.8415052554
 11
427.1097773301
 21
339.8415052554
  0
LINE
  5
3EB
100
AcDbEntity
  8
0
100
AcDbLine
 62
7
  6
CONTINUOUS
 10
356.6097773301
 20
291.8415052554
 11
356.6097773301
 21
365.8415052554
  0
LINE
  5
3EC
100
AcDbEntity
  8
0
100
AcDbLine
 62
7
  6
CONTINUOUS
 10
361.8059297528
 20
288.8415052554
 11
361.8059297528
 21
368.8415052554
  0
LINE
  5
3ED
100
AcDbEntity
  8
0
100
AcDbLine
 62
7
  6
CONTINUOUS
 10
388.6097773301
 20
348.8415052554
 11
391.1097773301
 21
348.8415052554
  0
LINE
  5
3EE
100
AcDbEntity
  8
0
100
AcDbLine
 62
9
  6
CONTINUOUS
 10
374.6097773301
 20
288.8415052554
 11
374.6097773301
 21
368.8415052554
  0
LINE
  5
3EF
100
AcDbEntity
  8
0
100
AcDbLine
 62
7
  6
CONTINUOUS
 10
377.6097773301
 20
283.8415052554
 11
377.6097773301
 21
373.8415052554
  0
LINE
  5
3F0
100
AcDbEntity
  8
0
100
AcDbLine
 62
7
  6
CONTINUOUS
 10
339.3099751686
 20
290.2765052554
 11
343.6097773301
 21
291.8415052554
  0
LINE
  5
3F1
100
AcDbEntity
  8
0
100
AcDbLine
 62
7
  6
CONTINUOUS
 10
285.1097773301
 20
364.6360579135
 11
257.6097773301
 21
364.6360579135
  0
LINE
  5
3F2
100
AcDbEntity
  8
0
100
AcDbLine
 62
7
  6
CONTINUOUS
 10
385.6097773301
 20
365.4338541824
 11
377.6097773301
 21
365.4338541824
  0
LINE
  5
3F3
100
AcDbEntity
  8
0
100
AcDbLine
 62
7
  6
CONTINUOUS
 10
343.6097773301
 20
365.8415052554
 11
356.6097773301
 21
365.8415052554
  0
LINE
  5
3F4
100
AcDbEntity
  8
0
100
AcDbLine
 62
7
  6
CONTINUOUS
 10
328.3597773301
 20
367.4065052554
 11
339.3099751686
 21
367.4065052554
  0
LINE
  5
3F5
100
AcDbEntity
  8
AUSBLENDEN
100
AcDbLine
 62
2
  6
CENTER
 10
257.6097773301
 20
368.8415052554
 11
265.6097773301
 21
368.8415052554
  0
LINE
  5
3F6
100
AcDbEntity
  8
0
100
AcDbLine
 62
7
  6
CONTINUOUS
 10
361.8059297528
 20
368.8415052554
 11
374.6097773301
 21
368.8415052554
  0
LINE
  5
3F7
100
AcDbEntity
  8
0
100
AcDbLine
 62
7
  6
CONTINUOUS
 10
385.6097773301
 20
368.8415052554
 11
388.2597769869
 21
368.8415052554
  0
LINE
  5
3F8
100
AcDbEntity
  8
0
100
AcDbLine
 62
7
  6
CONTINUOUS
 10
339.3099751686
 20
367.4065052554
 11
343.6097773301
 21
365.8415052554
  0
LINE
  5
3F9
100
AcDbEntity
  8
0
100
AcDbLine
 62
7
  6
CONTINUOUS
 10
385.6097773301
 20
283.8415052554
 11
385.6097773301
 21
373.8415052554
  0
LINE
  5
3FA
100
AcDbEntity
  8
FASEN
100
AcDbLine
 62
7
  6
CONTINUOUS
 10
388.2597769869
 20
368.8415052554
 11
388.2597769869
 21
288.8415052554
  0
LINE
  5
3FB
100
AcDbEntity
  8
FASEN
100
AcDbLine
 62
7
  6
CONTINUOUS
 10
388.6097773301
 20
368.8108841931
 11
388.6097773301
 21
288.8721263176
  0
LINE
  5
3FC
100
AcDbEntity
  8
0
100
AcDbLine
 62
7
  6
CONTINUOUS
 10
306.6097773301
 20
373.7915052554
 11
324.3597773301
 21
373.7915052554
  0
LINE
  5
3FD
100
AcDbEntity
  8
0
100
AcDbLine
 62
7
  6
CONTINUOUS
 10
385.6097773301
 20
373.8415052554
 11
377.6097773301
 21
373.8415052554
  0
LINE
  5
3FE
100
AcDbEntity
  8
0
100
AcDbLine
 62
7
  6
CONTINUOUS
 10
257.6097773301
 20
373.8415052554
 11
306.6097773301
 21
373.8415052554
  0
LINE
  5
3FF
100
AcDbEntity
  8
FASEN
100
AcDbLine
 62
7
  6
CONTINUOUS
 10
388.6097759581
 20
368.8108685113
 11
388.2597756139
 21
368.8414895615
  0
LINE
  5
400
100
AcDbEntity
  8
0
100
AcDbLine
 62
7
  6
CONTINUOUS
 10
391.1097773301
 20
348.8411556832
 11
391.1097773301
 21
308.8418548276
  0
LINE
  5
401
100
AcDbEntity
  8
0
100
AcDbLine
 62
7
  6
CONTINUOUS
 10
427.1097773301
 20
339.8415052554
 11
427.1097773301
 21
317.8415052554
  0
LINE
  5
402
100
AcDbEntity
  8
0
100
AcDbLine
 62
7
  6
CONTINUOUS
 10
52.3986522643
 20
365.4338541824
 11
52.3986522643
 21
292.2491563283
  0
LINE
  5
403
100
AcDbEntity
  8
0
100
AcDbLine
 62
7
  6
CONTINUOUS
 10
60.8063033372
 20
283.8415052554
 11
133.9910011914
 21
283.8415052554
  0
LINE
  5
404
100
AcDbEntity
  8
TEIL_STARTBEZUEGE
100
AcDbLine
 62
2
  6
CENTER
 10
97.3986522643
 20
280.508171922
 11
97.3986522643
 21
377.1748385887
  0
LINE
  5
405
100
AcDbEntity
  8
0
100
AcDbLine
 62
7
  6
CONTINUOUS
 10
130.4912496238
 20
366.5302966926
 11
130.4558942848
 21
366.4949413535
  0
LINE
  5
406
100
AcDbEntity
  8
0
100
AcDbLine
 62
7
  6
CONTINUOUS
 10
59.7452161661
 20
295.7842632349
 11
59.7098608271
 21
295.7489078958
  0
LINE
  5
407
100
AcDbEntity
  8
TEIL_STARTBEZUEGE
100
AcDbLine
 62
2
  6
CENTER
 10
145.7319855976
 20
328.8415052554
 11
49.065318931
 21
328.8415052554
  0
LINE
  5
408
100
AcDbEntity
  8
0
100
AcDbLine
 62
7
  6
CONTINUOUS
 10
59.7098608271
 20
361.9341026149
 11
59.7452161661
 21
361.8987472758
  0
LINE
  5
409
100
AcDbEntity
  8
0
100
AcDbLine
 62
7
  6
CONTINUOUS
 10
130.4558942848
 20
291.1880691572
 11
130.4912496238
 21
291.1527138181
  0
LINE
  5
40A
100
AcDbEntity
  8
0
100
AcDbLine
 62
7
  6
CONTINUOUS
 10
64.3060549048
 20
291.1527138181
 11
64.3414102438
 21
291.1880691572
  0
LINE
  5
40B
100
AcDbEntity
  8
0
100
AcDbLine
 62
7
  6
CONTINUOUS
 10
135.0520883625
 20
361.8987472758
 11
135.0874437016
 21
361.9341026149
  0
LINE
  5
40C
100
AcDbEntity
  8
0
100
AcDbLine
 62
7
  6
CONTINUOUS
 10
135.0874437015
 20
295.7489078958
 11
135.0520883625
 21
295.7842632349
  0
LINE
  5
40D
100
AcDbEntity
  8
0
100
AcDbLine
 62
7
  6
CONTINUOUS
 10
64.3414102438
 20
366.4949413535
 11
64.3060549048
 21
366.5302966926
  0
LINE
  5
40E
100
AcDbEntity
  8
0
100
AcDbLine
 62
7
  6
CONTINUOUS
 10
142.3986522643
 20
292.2491563283
 11
142.3986522643
 21
365.4338541824
  0
LINE
  5
40F
100
AcDbEntity
  8
0
100
AcDbLine
 62
7
  6
CONTINUOUS
 10
133.9910011914
 20
373.8415052554
 11
60.8063033372
 21
373.8415052554
  0
LINE
  5
410
100
AcDbEntity
  8
0
100
AcDbLine
 62
7
  6
CONTINUOUS
 10
554.8386623186
 20
292.2491563283
 11
554.8386623186
 21
365.4338541824
  0
LINE
  5
411
100
AcDbEntity
  8
0
100
AcDbLine
 62
7
  6
CONTINUOUS
 10
583.7659581593
 20
369.3744456208
 11
582.2677342107
 21
368.5094456208
  0
LINE
  5
412
100
AcDbEntity
  8
0
100
AcDbLine
 62
7
  6
CONTINUOUS
 10
636.4310112457
 20
283.8415052554
 11
563.2463133916
 21
283.8415052554
  0
LINE
  5
413
100
AcDbEntity
  8
0
100
AcDbLine
 62
7
  6
CONTINUOUS
 10
559.3057219532
 20
312.768801096
 11
560.1707219532
 21
311.2705771475
  0
LINE
  5
414
100
AcDbEntity
  8
BEZUGSACHSEN
100
AcDbLine
 62
2
  6
CENTER
 10
561.0357219532
 20
312.768801096
 11
561.0357219532
 21
305.518801096
  0
LINE
  5
415
100
AcDbEntity
  8
BEZUGSACHSEN
100
AcDbLine
 62
2
  6
CENTER
 10
561.0357219532
 20
312.768801096
 11
561.0357219532
 21
320.018801096
  0
LINE
  5
416
100
AcDbEntity
  8
0
100
AcDbLine
 62
7
  6
CONTINUOUS
 10
583.7659581593
 20
365.9144456208
 11
585.2641821078
 21
366.7794456208
  0
LINE
  5
417
100
AcDbEntity
  8
BEZUGSACHSEN
100
AcDbLine
 62
2
  6
CENTER
 10
615.911366478
 20
290.0385648899
 11
608.661366478
 21
290.0385648899
  0
LINE
  5
418
100
AcDbEntity
  8
BEZUGSACHSEN
100
AcDbLine
 62
2
  6
CENTER
 10
615.911366478
 20
290.0385648899
 11
623.161366478
 21
290.0385648899
  0
LINE
  5
419
100
AcDbEntity
  8
0
100
AcDbLine
 62
7
  6
CONTINUOUS
 10
562.7657219532
 20
312.768801096
 11
561.9007219532
 21
314.2670250446
  0
LINE
  5
41A
100
AcDbEntity
  8
BEZUGSACHSEN
100
AcDbLine
 62
2
  6
CENTER
 10
564.4833232593
 20
364.1968443147
 11
564.4833232593
 21
356.6968443147
  0
LINE
  5
41B
100
AcDbEntity
  8
BEZUGSACHSEN
100
AcDbLine
 62
2
  6
CENTER
 10
564.4833232593
 20
293.486166196
 11
564.4833232593
 21
285.986166196
  0
LINE
  5
41C
100
AcDbEntity
  8
BEZUGSACHSEN
100
AcDbLine
 62
2
  6
CENTER
 10
564.4833232593
 20
293.486166196
 11
564.4833232593
 21
300.986166196
  0
LINE
  5
41D
100
AcDbEntity
  8
BEZUGSACHSEN
100
AcDbLine
 62
2
  6
CENTER
 10
564.4833232593
 20
364.1968443147
 11
564.4833232593
 21
371.6968443147
  0
LINE
  5
41E
100
AcDbEntity
  8
BEZUGSACHSEN
100
AcDbLine
 62
2
  6
CENTER
 10
635.194001378
 20
293.486166196
 11
627.694001378
 21
293.486166196
  0
LINE
  5
41F
100
AcDbEntity
  8
BEZUGSACHSEN
100
AcDbLine
 62
2
  6
CENTER
 10
564.4833232593
 20
293.486166196
 11
556.9833232593
 21
293.486166196
  0
LINE
  5
420
100
AcDbEntity
  8
BEZUGSACHSEN
100
AcDbLine
 62
2
  6
CENTER
 10
564.4833232593
 20
293.486166196
 11
571.9833232593
 21
293.486166196
  0
LINE
  5
421
100
AcDbEntity
  8
BEZUGSACHSEN
100
AcDbLine
 62
2
  6
CENTER
 10
635.194001378
 20
293.486166196
 11
642.694001378
 21
293.486166196
  0
LINE
  5
422
100
AcDbEntity
  8
0
100
AcDbLine
 62
7
  6
CONTINUOUS
 10
560.1707219532
 20
314.2670250446
 11
559.3057219532
 21
312.768801096
  0
LINE
  5
423
100
AcDbEntity
  8
0
100
AcDbLine
 62
7
  6
CONTINUOUS
 10
561.9007219532
 20
311.2705771475
 11
562.7657219532
 21
312.768801096
  0
LINE
  5
424
100
AcDbEntity
  8
0
100
AcDbLine
 62
7
  6
CONTINUOUS
 10
614.4131425294
 20
289.1735648899
 11
615.911366478
 21
288.3085648899
  0
LINE
  5
425
100
AcDbEntity
  8
0
100
AcDbLine
 62
7
  6
CONTINUOUS
 10
617.4095904265
 20
290.9035648899
 11
615.911366478
 21
291.7685648899
  0
LINE
  5
426
100
AcDbEntity
  8
BEZUGSACHSEN
100
AcDbLine
 62
7
  6
CONTINUOUS
 10
607.9268523152
 20
310.5915052554
 11
611.8386623186
 21
310.5915052554
  0
LINE
  5
427
100
AcDbEntity
  8
0
100
AcDbLine
 62
7
  6
CONTINUOUS
 10
582.2677342107
 20
368.5094456208
 11
582.2677342107
 21
366.7794456208
  0
LINE
  5
428
100
AcDbEntity
  8
BEZUGSACHSEN
100
AcDbLine
 62
2
  6
CENTER
 10
583.7659581593
 20
367.6444456208
 11
583.7659581593
 21
360.3944456208
  0
LINE
  5
429
100
AcDbEntity
  8
BEZUGSACHSEN
100
AcDbLine
 62
2
  6
CENTER
 10
583.7659581593
 20
367.6444456208
 11
583.7659581593
 21
374.8944456208
  0
LINE
  5
42A
100
AcDbEntity
  8
0
100
AcDbLine
 62
7
  6
CONTINUOUS
 10
585.2641821078
 20
366.7794456208
 11
585.2641821078
 21
368.5094456208
  0
LINE
  5
42B
100
AcDbEntity
  8
0
100
AcDbLine
 62
7
  6
CONTINUOUS
 10
560.1707219532
 20
311.2705771475
 11
561.9007219532
 21
311.2705771475
  0
LINE
  5
42C
100
AcDbEntity
  8
BEZUGSACHSEN
100
AcDbLine
 62
2
  6
CENTER
 10
561.0357219532
 20
312.768801096
 11
553.7857219532
 21
312.768801096
  0
LINE
  5
42D
100
AcDbEntity
  8
BEZUGSACHSEN
100
AcDbLine
 62
2
  6
CENTER
 10
561.0357219532
 20
312.768801096
 11
568.2857219532
 21
312.768801096
  0
LINE
  5
42E
100
AcDbEntity
  8
0
100
AcDbLine
 62
7
  6
CONTINUOUS
 10
561.9007219532
 20
314.2670250446
 11
560.1707219532
 21
314.2670250446
  0
LINE
  5
42F
100
AcDbEntity
  8
0
100
AcDbLine
 62
7
  6
CONTINUOUS
 10
599.0886623186
 20
319.3711567929
 11
599.0886623186
 21
308.8555727027
  0
LINE
  5
430
100
AcDbEntity
  8
0
100
AcDbLine
 62
7
  6
CONTINUOUS
 10
599.0886623186
 20
319.3962352751
 11
599.0886623186
 21
320.8767390943
  0
LINE
  5
431
100
AcDbEntity
  8
TEIL_STARTBEZUEGE
100
AcDbLine
 62
2
  6
CENTER
 10
599.8386623186
 20
280.508171922
 11
599.8386623186
 21
377.1748385887
  0
LINE
  5
432
100
AcDbEntity
  8
TEIL_STARTBEZUEGE
100
AcDbLine
 62
2
  6
CENTER
 10
551.5053289853
 20
328.8415052554
 11
648.171995652
 21
328.8415052554
  0
LINE
  5
433
100
AcDbEntity
  8
0
100
AcDbLine
 62
7
  6
CONTINUOUS
 10
600.5886623186
 20
320.8767390943
 11
600.5886623186
 21
319.3962352751
  0
LINE
  5
434
100
AcDbEntity
  8
0
100
AcDbLine
 62
7
  6
CONTINUOUS
 10
600.5886623186
 20
308.8555727027
 11
600.5886623186
 21
319.3711567929
  0
LINE
  5
435
100
AcDbEntity
  8
BEZUGSACHSEN
100
AcDbLine
 62
7
  6
CONTINUOUS
 10
611.8386623186
 20
312.9380982622
 11
611.8386623186
 21
310.5921634839
  0
LINE
  5
436
100
AcDbEntity
  8
0
100
AcDbLine
 62
7
  6
CONTINUOUS
 10
614.4131425294
 20
290.9035648899
 11
614.4131425294
 21
289.1735648899
  0
LINE
  5
437
100
AcDbEntity
  8
0
100
AcDbLine
 62
7
  6
CONTINUOUS
 10
637.7766026841
 20
343.4159854661
 11
639.5066026841
 21
343.4159854661
  0
LINE
  5
438
100
AcDbEntity
  8
BEZUGSACHSEN
100
AcDbLine
 62
2
  6
CENTER
 10
615.911366478
 20
290.0385648899
 11
615.911366478
 21
282.7885648899
  0
LINE
  5
439
100
AcDbEntity
  8
BEZUGSACHSEN
100
AcDbLine
 62
2
  6
CENTER
 10
615.911366478
 20
290.0385648899
 11
615.911366478
 21
297.2885648899
  0
LINE
  5
43A
100
AcDbEntity
  8
0
100
AcDbLine
 62
7
  6
CONTINUOUS
 10
617.4095904265
 20
289.1735648899
 11
617.4095904265
 21
290.9035648899
  0
LINE
  5
43B
100
AcDbEntity
  8
BEZUGSACHSEN
100
AcDbLine
 62
2
  6
CENTER
 10
638.6416026841
 20
344.9142094147
 11
631.3916026841
 21
344.9142094147
  0
LINE
  5
43C
100
AcDbEntity
  8
BEZUGSACHSEN
100
AcDbLine
 62
2
  6
CENTER
 10
638.6416026841
 20
344.9142094147
 11
645.8916026841
 21
344.9142094147
  0
LINE
  5
43D
100
AcDbEntity
  8
0
100
AcDbLine
 62
7
  6
CONTINUOUS
 10
639.5066026841
 20
346.4124333632
 11
637.7766026841
 21
346.4124333632
  0
LINE
  5
43E
100
AcDbEntity
  8
0
100
AcDbLine
 62
7
  6
CONTINUOUS
 10
637.7766026841
 20
346.4124333632
 11
636.9116026841
 21
344.9142094147
  0
LINE
  5
43F
100
AcDbEntity
  8
0
100
AcDbLine
 62
7
  6
CONTINUOUS
 10
582.2677342107
 20
366.7794456208
 11
583.7659581593
 21
365.9144456208
  0
LINE
  5
440
100
AcDbEntity
  8
0
100
AcDbLine
 62
7
  6
CONTINUOUS
 10
639.5066026841
 20
343.4159854661
 11
640.3716026841
 21
344.9142094147
  0
LINE
  5
441
100
AcDbEntity
  8
0
100
AcDbLine
 62
7
  6
CONTINUOUS
 10
585.2641821078
 20
368.5094456208
 11
583.7659581593
 21
369.3744456208
  0
LINE
  5
442
100
AcDbEntity
  8
BEZUGSACHSEN
100
AcDbLine
 62
2
  6
CENTER
 10
635.194001378
 20
364.1968443147
 11
635.194001378
 21
356.6968443147
  0
LINE
  5
443
100
AcDbEntity
  8
BEZUGSACHSEN
100
AcDbLine
 62
2
  6
CENTER
 10
635.194001378
 20
293.486166196
 11
635.194001378
 21
285.986166196
  0
LINE
  5
444
100
AcDbEntity
  8
BEZUGSACHSEN
100
AcDbLine
 62
2
  6
CENTER
 10
635.194001378
 20
293.486166196
 11
635.194001378
 21
300.986166196
  0
LINE
  5
445
100
AcDbEntity
  8
BEZUGSACHSEN
100
AcDbLine
 62
2
  6
CENTER
 10
635.194001378
 20
364.1968443147
 11
635.194001378
 21
371.6968443147
  0
LINE
  5
446
100
AcDbEntity
  8
BEZUGSACHSEN
100
AcDbLine
 62
2
  6
CENTER
 10
635.194001378
 20
364.1968443147
 11
627.694001378
 21
364.1968443147
  0
LINE
  5
447
100
AcDbEntity
  8
BEZUGSACHSEN
100
AcDbLine
 62
2
  6
CENTER
 10
564.4833232593
 20
364.1968443147
 11
556.9833232593
 21
364.1968443147
  0
LINE
  5
448
100
AcDbEntity
  8
BEZUGSACHSEN
100
AcDbLine
 62
2
  6
CENTER
 10
564.4833232593
 20
364.1968443147
 11
571.9833232593
 21
364.1968443147
  0
LINE
  5
449
100
AcDbEntity
  8
BEZUGSACHSEN
100
AcDbLine
 62
2
  6
CENTER
 10
635.194001378
 20
364.1968443147
 11
642.694001378
 21
364.1968443147
  0
LINE
  5
44A
100
AcDbEntity
  8
BEZUGSACHSEN
100
AcDbLine
 62
2
  6
CENTER
 10
638.6416026841
 20
344.9142094147
 11
638.6416026841
 21
337.6642094147
  0
LINE
  5
44B
100
AcDbEntity
  8
BEZUGSACHSEN
100
AcDbLine
 62
2
  6
CENTER
 10
638.6416026841
 20
344.9142094147
 11
638.6416026841
 21
352.1642094147
  0
LINE
  5
44C
100
AcDbEntity
  8
0
100
AcDbLine
 62
7
  6
CONTINUOUS
 10
615.911366478
 20
291.7685648899
 11
614.4131425294
 21
290.9035648899
  0
LINE
  5
44D
100
AcDbEntity
  8
BEZUGSACHSEN
100
AcDbLine
 62
2
  6
CENTER
 10
583.7659581593
 20
367.6444456208
 11
576.5159581593
 21
367.6444456208
  0
LINE
  5
44E
100
AcDbEntity
  8
BEZUGSACHSEN
100
AcDbLine
 62
2
  6
CENTER
 10
583.7659581593
 20
367.6444456208
 11
591.0159581593
 21
367.6444456208
  0
LINE
  5
44F
100
AcDbEntity
  8
0
100
AcDbLine
 62
7
  6
CONTINUOUS
 10
636.9116026841
 20
344.9142094147
 11
637.7766026841
 21
343.4159854661
  0
LINE
  5
450
100
AcDbEntity
  8
0
100
AcDbLine
 62
7
  6
CONTINUOUS
 10
644.8386623186
 20
365.4338541824
 11
644.8386623186
 21
292.2491563283
  0
LINE
  5
451
100
AcDbEntity
  8
0
100
AcDbLine
 62
7
  6
CONTINUOUS
 10
615.911366478
 20
288.3085648899
 11
617.4095904265
 21
289.1735648899
  0
LINE
  5
452
100
AcDbEntity
  8
0
100
AcDbLine
 62
7
  6
CONTINUOUS
 10
563.2463133916
 20
373.8415052554
 11
636.4310112457
 21
373.8415052554
  0
LINE
  5
453
100
AcDbEntity
  8
0
100
AcDbLine
 62
7
  6
CONTINUOUS
 10
640.3716026841
 20
344.9142094147
 11
639.5066026841
 21
346.4124333632
  0
CIRCLE
  5
454
100
AcDbEntity
  8
BEZUGSACHSEN
100
AcDbCircle
 62
7
  6
CONTINUOUS
 10
279.1097773301
 20
314.8415052554
 40
5.25
  0
ARC
  5
455
100
AcDbEntity
  8
0
100
AcDbCircle
 62
7
  6
CONTINUOUS
 10
328.3597773301
 20
286.2765052554
 40
4.0
100
AcDbArc
 50
90.0
 51
180.0
  0
ARC
  5
456
100
AcDbEntity
  8
0
100
AcDbCircle
 62
7
  6
CONTINUOUS
 10
328.3597773301
 20
371.4065052554
 40
4.0
100
AcDbArc
 50
180.0
 51
270.0
  0
ARC
  5
457
100
AcDbEntity
  8
0
100
AcDbCircle
 62
7
  6
CONTINUOUS
 10
374.6097773301
 20
285.8415052554
 40
3.0
100
AcDbArc
 50
0.0
 51
90.0
  0
ARC
  5
458
100
AcDbEntity
  8
0
100
AcDbCircle
 62
7
  6
CONTINUOUS
 10
374.6097773301
 20
371.8415052554
 40
3.0
100
AcDbArc
 50
270.0
 51
360.0
  0
ARC
  5
459
100
AcDbEntity
  8
0
100
AcDbCircle
 62
7
  6
CONTINUOUS
 10
97.3986522643
 20
328.8415052554
 40
58.0
100
AcDbArc
 50
309.1167437796
 51
320.8832562204
  0
ARC
  5
45A
100
AcDbEntity
  8
0
100
AcDbCircle
 62
7
  6
CONTINUOUS
 10
97.3986522643
 20
328.8415052554
 40
58.0
100
AcDbArc
 50
219.1167437796
 51
230.8832562204
  0
ARC
  5
45B
100
AcDbEntity
  8
0
100
AcDbCircle
 62
7
  6
CONTINUOUS
 10
97.3986522643
 20
328.8415052554
 40
58.0
100
AcDbArc
 50
129.1167437796
 51
140.8832562204
  0
ARC
  5
45C
100
AcDbEntity
  8
0
100
AcDbCircle
 62
7
  6
CONTINUOUS
 10
97.3986522643
 20
328.8415052554
 40
58.0
100
AcDbArc
 50
39.1167437796
 51
50.8832562204
  0
CIRCLE
  5
45D
100
AcDbEntity
  8
ANSICHT_3D
100
AcDbCircle
 62
2
  6
CENTER
 10
97.3986522643
 20
328.8415052554
 40
50.0
  0
CIRCLE
  5
45E
100
AcDbEntity
  8
FASEN
100
AcDbCircle
 62
7
  6
CONTINUOUS
 10
97.3986522643
 20
328.8415052554
 40
40.0
  0
CIRCLE
  5
45F
100
AcDbEntity
  8
FASEN
100
AcDbCircle
 62
7
  6
CONTINUOUS
 10
97.3986522643
 20
328.8415052554
 40
39.9693632303
  0
CIRCLE
  5
460
100
AcDbEntity
  8
0
100
AcDbCircle
 62
7
  6
CONTINUOUS
 10
97.3986522643
 20
328.8415052554
 40
20.0
  0
CIRCLE
  5
461
100
AcDbEntity
  8
0
100
AcDbCircle
 62
7
  6
CONTINUOUS
 10
97.3986522643
 20
328.8415052554
 40
11.0
  0
ARC
  5
462
100
AcDbEntity
  8
0
100
AcDbCircle
 62
7
  6
CONTINUOUS
 10
62.0079578659
 20
364.2321996537
 40
3.25
100
AcDbArc
 50
45.0
 51
225.0
  0
ARC
  5
463
100
AcDbEntity
  8
0
100
AcDbCircle
 62
7
  6
CONTINUOUS
 10
62.043313205
 20
364.1968443147
 40
3.25
100
AcDbArc
 50
225.0
 51
45.0
  0
ARC
  5
464
100
AcDbEntity
  8
0
100
AcDbCircle
 62
7
  6
CONTINUOUS
 10
62.0079578659
 20
293.450810857
 40
3.25
100
AcDbArc
 50
135.0
 51
315.0
  0
ARC
  5
465
100
AcDbEntity
  8
0
100
AcDbCircle
 62
7
  6
CONTINUOUS
 10
62.043313205
 20
293.486166196
 40
3.25
100
AcDbArc
 50
315.0
 51
135.0
  0
ARC
  5
466
100
AcDbEntity
  8
0
100
AcDbCircle
 62
7
  6
CONTINUOUS
 10
132.7893466627
 20
293.450810857
 40
3.25
100
AcDbArc
 50
225.0
 51
45.0
  0
ARC
  5
467
100
AcDbEntity
  8
0
100
AcDbCircle
 62
7
  6
CONTINUOUS
 10
132.7539913236
 20
293.486166196
 40
3.25
100
AcDbArc
 50
45.0
 51
225.0
  0
ARC
  5
468
100
AcDbEntity
  8
0
100
AcDbCircle
 62
7
  6
CONTINUOUS
 10
132.7893466627
 20
364.2321996537
 40
3.25
100
AcDbArc
 50
315.0
 51
135.0
  0
ARC
  5
469
100
AcDbEntity
  8
0
100
AcDbCircle
 62
7
  6
CONTINUOUS
 10
132.7539913236
 20
364.1968443147
 40
3.25
100
AcDbArc
 50
135.0
 51
315.0
  0
CIRCLE
  5
46A
100
AcDbEntity
  8
BEZUGSACHSEN
100
AcDbCircle
 62
7
  6
CONTINUOUS
 10
561.0357219532
 20
312.768801096
 40
5.0
  0
CIRCLE
  5
46B
100
AcDbEntity
  8
0
100
AcDbCircle
 62
7
  6
CONTINUOUS
 10
561.0357219532
 20
312.768801096
 40
3.5
  0
ARC
  5
46C
100
AcDbEntity
  8
0
100
AcDbCircle
 62
2
  6
CONTINUOUS
 10
564.4833232593
 20
293.486166196
 40
3.0
100
AcDbArc
 50
255.0
 51
195.0
  0
CIRCLE
  5
46D
100
AcDbEntity
  8
BEZUGSACHSEN
100
AcDbCircle
 62
7
  6
CONTINUOUS
 10
564.4833232593
 20
293.486166196
 40
2.5
  0
CIRCLE
  5
46E
100
AcDbEntity
  8
BEZUGSACHSEN
100
AcDbCircle
 62
7
  6
CONTINUOUS
 10
583.7659581593
 20
367.6444456208
 40
5.0
  0
CIRCLE
  5
46F
100
AcDbEntity
  8
0
100
AcDbCircle
 62
7
  6
CONTINUOUS
 10
583.7659581593
 20
367.6444456208
 40
3.5
  0
ARC
  5
470
100
AcDbEntity
  8
0
100
AcDbCircle
 62
2
  6
CONTINUOUS
 10
564.4833232593
 20
364.1968443147
 40
3.0
100
AcDbArc
 50
255.0
 51
195.0
  0
CIRCLE
  5
471
100
AcDbEntity
  8
BEZUGSACHSEN
100
AcDbCircle
 62
7
  6
CONTINUOUS
 10
564.4833232593
 20
364.1968443147
 40
2.5
  0
CIRCLE
  5
472
100
AcDbEntity
  8
BEZUGSACHSEN
100
AcDbCircle
 62
7
  6
CONTINUOUS
 10
615.911366478
 20
290.0385648899
 40
5.0
  0
CIRCLE
  5
473
100
AcDbEntity
  8
0
100
AcDbCircle
 62
7
  6
CONTINUOUS
 10
615.911366478
 20
290.0385648899
 40
3.5
  0
ARC
  5
474
100
AcDbEntity
  8
0
100
AcDbCircle
 62
2
  6
CONTINUOUS
 10
635.194001378
 20
293.486166196
 40
3.0
100
AcDbArc
 50
255.0
 51
195.0
  0
CIRCLE
  5
475
100
AcDbEntity
  8
BEZUGSACHSEN
100
AcDbCircle
 62
7
  6
CONTINUOUS
 10
635.194001378
 20
293.486166196
 40
2.5
  0
ARC
  5
476
100
AcDbEntity
  8
0
100
AcDbCircle
 62
7
  6
CONTINUOUS
 10
599.8386623186
 20
328.8415052554
 40
58.0
100
AcDbArc
 50
219.1167437796
 51
230.8832562204
  0
ARC
  5
477
100
AcDbEntity
  8
0
100
AcDbCircle
 62
7
  6
CONTINUOUS
 10
599.8386623186
 20
328.8415052554
 40
58.0
100
AcDbArc
 50
129.1167437796
 51
140.8832562204
  0
ARC
  5
478
100
AcDbEntity
  8
0
100
AcDbCircle
 62
7
  6
CONTINUOUS
 10
599.8386623186
 20
328.8415052554
 40
58.0
100
AcDbArc
 50
39.1167437796
 51
50.8832562204
  0
ARC
  5
479
100
AcDbEntity
  8
0
100
AcDbCircle
 62
7
  6
CONTINUOUS
 10
599.8386623186
 20
328.8415052554
 40
58.0
100
AcDbArc
 50
309.1167437796
 51
320.8832562204
  0
ARC
  5
47A
100
AcDbEntity
  8
0
100
AcDbCircle
 62
7
  6
CONTINUOUS
 10
599.8386623186
 20
328.8415052554
 40
57.5
100
AcDbArc
 50
128.4999504092
 51
141.5000495908
  0
ARC
  5
47B
100
AcDbEntity
  8
0
100
AcDbCircle
 62
7
  6
CONTINUOUS
 10
599.8386623186
 20
328.8415052554
 40
57.5
100
AcDbArc
 50
38.4999504092
 51
51.5000495908
  0
ARC
  5
47C
100
AcDbEntity
  8
0
100
AcDbCircle
 62
7
  6
CONTINUOUS
 10
599.8386623186
 20
328.8415052554
 40
57.5
100
AcDbArc
 50
308.4999504092
 51
321.5000495908
  0
ARC
  5
47D
100
AcDbEntity
  8
0
100
AcDbCircle
 62
7
  6
CONTINUOUS
 10
599.8386623186
 20
328.8415052554
 40
57.5
100
AcDbArc
 50
218.4999504092
 51
231.5000495908
  0
CIRCLE
  5
47E
100
AcDbEntity
  8
ANSICHT_3D
100
AcDbCircle
 62
2
  6
CENTER
 10
599.8386623186
 20
328.8415052554
 40
50.0
  0
ARC
  5
47F
100
AcDbEntity
  8
BEZUGSACHSEN
100
AcDbCircle
 62
7
  6
CONTINUOUS
 10
599.8386623186
 20
328.8415052554
 40
40.0
100
AcDbArc
 50
208.9092039782
 51
286.0907960218
  0
ARC
  5
480
100
AcDbEntity
  8
BEZUGSACHSEN
100
AcDbCircle
 62
7
  6
CONTINUOUS
 10
599.8386623186
 20
328.8415052554
 40
40.0
100
AcDbArc
 50
118.9092039782
 51
196.0907960218
  0
ARC
  5
481
100
AcDbEntity
  8
BEZUGSACHSEN
100
AcDbCircle
 62
7
  6
CONTINUOUS
 10
599.8386623186
 20
328.8415052554
 40
40.0
100
AcDbArc
 50
298.9092039782
 51
16.0907960218
  0
ARC
  5
482
100
AcDbEntity
  8
BEZUGSACHSEN
100
AcDbCircle
 62
7
  6
CONTINUOUS
 10
599.8386623186
 20
328.8415052554
 40
40.0
100
AcDbArc
 50
28.9092039782
 51
106.0907960218
  0
CIRCLE
  5
483
100
AcDbEntity
  8
0
100
AcDbCircle
 62
7
  6
CONTINUOUS
 10
599.8386623186
 20
328.8415052554
 40
23.5
  0
ARC
  5
484
100
AcDbEntity
  8
0
100
AcDbCircle
 62
7
  6
CONTINUOUS
 10
599.8386623186
 20
328.8415052554
 40
20.0
100
AcDbArc
 50
272.1490956269
 51
267.8509043731
  0
ARC
  5
485
100
AcDbEntity
  8
0
100
AcDbCircle
 62
7
  6
CONTINUOUS
 10
599.8386623186
 20
328.8415052554
 40
19.95
100
AcDbArc
 50
267.8455156316
 51
272.1544843684
  0
CIRCLE
  5
486
100
AcDbEntity
  8
0
100
AcDbCircle
 62
7
  6
CONTINUOUS
 10
599.8386623186
 20
328.8415052554
 40
9.5
  0
ARC
  5
487
100
AcDbEntity
  8
0
100
AcDbCircle
 62
7
  6
CONTINUOUS
 10
599.8386623186
 20
328.8415052554
 40
9.475
100
AcDbArc
 50
274.5400354443
 51
265.4599645557
  0
ARC
  5
488
100
AcDbEntity
  8
0
100
AcDbCircle
 62
7
  6
CONTINUOUS
 10
599.8386623186
 20
328.8415052554
 40
8.0
100
AcDbArc
 50
275.3793789911
 51
264.6206210089
  0
CIRCLE
  5
489
100
AcDbEntity
  8
BEZUGSACHSEN
100
AcDbCircle
 62
7
  6
CONTINUOUS
 10
638.6416026841
 20
344.9142094147
 40
5.0
  0
CIRCLE
  5
48A
100
AcDbEntity
  8
0
100
AcDbCircle
 62
7
  6
CONTINUOUS
 10
638.6416026841
 20
344.9142094147
 40
3.5
  0
ARC
  5
48B
100
AcDbEntity
  8
0
100
AcDbCircle
 62
2
  6
CONTINUOUS
 10
635.194001378
 20
364.1968443147
 40
3.0
100
AcDbArc
 50
255.0
 51
195.0
  0
CIRCLE
  5
48C
100
AcDbEntity
  8
BEZUGSACHSEN
100
AcDbCircle
 62
7
  6
CONTINUOUS
 10
635.194001378
 20
364.1968443147
 40
2.5
  0
SPLINE
  5
48D
100
AcDbEntity
  8
0
100
AcDbSpline
 62
7
  6
CONTINUOUS
 70
0
 71
3
 72
11
 73
7
 74
0
 42
0.0000001
 43
0.0000001
 44
0.0000000001
 40
0.0
 40
0.0
 40
0.0
 40
0.0
 40
0.2497799267
 40
0.4997561931
 40
0.7498510556
 40
1.0
 40
1.0
 40
1.0
 40
1.0
 10
285.1097773301
 20
293.0469525972
 30
0.0
 10
286.8038684067
 20
295.6341443395
 30
0.0
 10
289.5001866414
 20
301.2788753339
 30
0.0
 10
291.8008454144
 20
310.3083607443
 30
0.0
 10
292.9014477445
 20
319.5485720057
 30
0.0
 10
293.1097773301
 20
325.7444446707
 30
0.0
 10
293.1097773301
 20
328.8415052554
 30
0.0
  0
SPLINE
  5
48E
100
AcDbEntity
  8
0
100
AcDbSpline
 62
7
  6
CONTINUOUS
 70
0
 71
3
 72
11
 73
7
 74
0
 42
0.0000001
 43
0.0000001
 44
0.0000000001
 40
0.0
 40
0.0
 40
0.0
 40
0.0
 40
0.2501488004
 40
0.5002435319
 40
0.7502194805
 40
1.0
 40
1.0
 40
1.0
 40
1.0
 10
293.1097773301
 20
328.8415052554
 30
0.0
 10
293.1097773301
 20
331.9385640515
 30
0.0
 10
292.9014478821
 20
338.1344332879
 30
0.0
 10
291.8008471871
 20
347.3746373156
 30
0.0
 10
289.5001905831
 20
356.4041248659
 30
0.0
 10
286.803872425
 20
362.0488600346
 30
0.0
 10
285.1097773301
 20
364.6360579135
 30
0.0
  0
ENDSEC
  0
SECTION
  2
OBJECTS
  0
DICTIONARY
  5
C
100
AcDbDictionary
280
0
281
1
  3
ACAD_GROUP
350
D
  3
ACAD_MLINESTYLE
350
17
  3
ACAD_LAYOUT
350
1A
  3
ACAD_PLOTSETTINGS
350
19
  3
ACAD_PLOTSTYLENAME
350
E
  0
DICTIONARY
  5
D
102
{ACAD_REACTORS
330
C
102
}
100
AcDbDictionary
280
0
281
1
  0
ACDBDICTIONARYWDFLT
  5
E
102
{ACAD_REACTORS
330
C
102
}
100
AcDbDictionary
281
1
  3
Normal
350
F
100
AcDbDictionaryWithDefault
340
F
  0
DICTIONARY
  5
17
102
{ACAD_REACTORS
330
C
102
}
100
AcDbDictionary
280
0
281
1
  3
Standard
350
18
  0
DICTIONARY
  5
19
102
{ACAD_REACTORS
330
C
102
}
100
AcDbDictionary
281
1
  0
DICTIONARY
  5
1A
102
{ACAD_REACTORS
330
C
102
}
100
AcDbDictionary
281
1
  3
Model
350
48F
  3
Layout1
350
490
  0
ACDBPLACEHOLDER
  5
F
102
{ACAD_REACTORS
330
E
102
}
  0
MLINESTYLE
  5
18
102
{ACAD_REACTORS
330
17
102
}
100
AcDbMlineStyle
  2
STANDARD
 70
0
  3

 62
256
 51
90.0
 52
90.0
 71
2
 49
0.5
 62
256
  6
BYLAYER
 49
-0.5
 62
256
  6
BYLAYER
  0
LAYOUT
  5
48F
102
{ACAD_REACTORS
330
1A
102
}
100
AcDbPlotSettings
  1

  2
none_device
  4
ISO_A3_(420.00_x_297.00_MM)
  6

 40
0.0
 41
0.0
 42
0.0
 43
0.0
 44
420.0
 45
297.0
 46
0.0
 47
0.0
 48
0.0
 49
0.0
140
0.0
141
0.0
142
1.0
143
1.0
 70
1024
 72
1
 73
0
 74
0
  7

 75
0
147
1.0
148
0.0
149
0.0
100
AcDbLayout
  1
Model
 70
0
 71
0
 10
0.0
 20
0.0
 11
420.0
 21
297.0
 12
0.0
 22
0.0
 32
0.0
 14
0.0
 24
0.0
 34
0.0
 15
0.0
 25
0.0
 35
0.0
146
0.0
 13
0.0
 23
0.0
 33
0.0
 16
1.0
 26
0.0
 36
0.0
 17
0.0
 27
1.0
 37
0.0
 76
0
330
21A
345
0
346
0
  0
LAYOUT
  5
490
102
{ACAD_REACTORS
330
1A
102
}
100
AcDbPlotSettings
  1

  2
none_device
  4
ISO_A3_(420.00_x_297.00_MM)
  6

 40
0.0
 41
0.0
 42
0.0
 43
0.0
 44
420.0
 45
297.0
 46
0.0
 47
0.0
 48
0.0
 49
0.0
140
0.0
141
0.0
142
1.0
143
1.0
 70
0
 72
1
 73
0
 74
0
  7

 75
0
147
1.0
148
0.0
149
0.0
100
AcDbLayout
  1
Layout1
 70
0
 71
1
 10
0.0
 20
0.0
 11
420.0
 21
297.0
 12
0.0
 22
0.0
 32
0.0
 14
0.0
 24
0.0
 34
0.0
 15
0.0
 25
0.0
 35
0.0
146
0.0
 13
0.0
 23
0.0
 33
0.0
 16
1.0
 26
0.0
 36
0.0
 17
0.0
 27
1.0
 37
0.0
 76
0
330
21B
345
0
346
0
  0
ENDSEC
  0
EOF
